Поиск

(Neo Soul) [CD] Slowly Rolling Camera - Slowly Rolling Camera - 2014, FLAC (tracks+.cue), lossless

(Neo Soul) [CD] Slowly Rolling Camera - Slowly Rolling Camera - 2014, FLAC (tracks+.cue), lossless
Треклист:
Slowly Rolling Camera - Slowly Rolling Camera Жанр: Neo Soul
Носитель: CD
Год издания: 2014
Издатель (лейбл): Edition Records
Номер по каталогу: EDN1048
Аудиокодек: FLAC (*.flac)
Тип рипа: tracks+.cue
Битрейт аудио: lossless
Продолжительность: 60:14
Источник (релизер): другой трекер
Наличие сканов в содержимом раздачи: да
Треклист:
01. Protagonist (5:16)
02. Dream A Life (5:26)
03. Rain that Falls (6:14)
04. Bridge (6:20)
05. Slowly Rolling Camera (5:19)
06. Outside (5:52)
07. Fragile Ground (5:46)
08. Two Roads (5:07)
09. River Runs Free (3:06)
10. Rolling Clouds (7:23)
11. Color (4:26)
 
 
Лог создания рипа
Exact Audio Copy V1.0 beta 3 from 29. August 2011
EAC extraction logfile from 2. May 2014, 14:08
Slowly Rolling Camera / Slowly Rolling Camera
Used drive : Optiarc DVD RW AD-7240S Adapter: 3 ID: 1
Read mode : Secure
Utilize accurate stream : Yes
Defeat audio cache : Yes
Make use of C2 pointers : No
Read offset correction : 48
Overread into Lead-In and Lead-Out : No
Fill up missing offset samples with silence : Yes
Delete leading and trailing silent blocks : No
Null samples used in CRC calculations : Yes
Used interface : Installed external ASPI interface
Gap handling : Appended to previous track
Used output format : User Defined Encoder
Selected bitrate : 896 kBit/s
Quality : High
Add ID3 tag : No
Command line compressor : C:\Program Files\Exact Audio Copy\Flac\flac.exe
Additional command line options : -8 -V -T "ARTIST=%artist%" -T "TITLE=%title%" -T "ALBUM=%albumtitle%" -T "DATE=%year%" -T "TRACKNUMBER=%tracknr%" -T "TOTALTRACKS=%numtracks%" -T "GENRE=%genre%" -T "ALBUMARTIST=%albumartist%" -T "ALBUM ARTIST=%albumartist%" -T "COMMENT=EAC Secure Mode, Test & Copy, AccurateRip, FLAC -8" %source%
TOC of the extracted CD
Track | Start | Length | Start sector | End sector
---------------------------------------------------------
1 | 0:00.00 | 5:15.43 | 0 | 23667
2 | 5:15.43 | 5:25.71 | 23668 | 48113
3 | 10:41.39 | 6:14.16 | 48114 | 76179
4 | 16:55.55 | 6:20.02 | 76180 | 104681
5 | 23:15.57 | 5:18.66 | 104682 | 128597
6 | 28:34.48 | 5:51.56 | 128598 | 154978
7 | 34:26.29 | 5:45.61 | 154979 | 180914
8 | 40:12.15 | 5:07.34 | 180915 | 203973
9 | 45:19.49 | 3:05.61 | 203974 | 217909
10 | 48:25.35 | 7:22.48 | 217910 | 251107
11 | 55:48.08 | 4:26.18 | 251108 | 271075
Track 1
Filename F:\AneL\MY RIPS\01 - Protagonist.wav
Pre-gap length 0:00:02.00
Peak level 100.0 %
Extraction speed 2.4 X
Track quality 100.0 %
Test CRC 40532FF6
Copy CRC 40532FF6
Accurately ripped (confidence 1) [B9FEA1E1] (AR v2)
Copy OK
Track 2
Filename F:\AneL\MY RIPS\02 - Dream A Life.wav
Peak level 98.0 %
Extraction speed 2.7 X
Track quality 100.0 %
Test CRC 7298CBBD
Copy CRC 7298CBBD
Accurately ripped (confidence 1) [33F981B8] (AR v2)
Copy OK
Track 3
Filename F:\AneL\MY RIPS\03 - Rain that Falls.wav
Peak level 97.6 %
Extraction speed 3.1 X
Track quality 100.0 %
Test CRC 52435102
Copy CRC 52435102
Accurately ripped (confidence 1) [AC125788] (AR v2)
Copy OK
Track 4
Filename F:\AneL\MY RIPS\04 - Bridge.wav
Pre-gap length 0:00:06.00
Peak level 99.2 %
Extraction speed 3.4 X
Track quality 100.0 %
Test CRC 9E72BCE1
Copy CRC 9E72BCE1
Accurately ripped (confidence 2) [CA5279A4] (AR v2)
Copy OK
Track 5
Filename F:\AneL\MY RIPS\05 - Slowly Rolling Camera.wav
Pre-gap length 0:00:03.06
Peak level 97.1 %
Extraction speed 3.7 X
Track quality 100.0 %
Test CRC 0C6DA030
Copy CRC 0C6DA030
Accurately ripped (confidence 2) [B5320946] (AR v2)
Copy OK
Track 6
Filename F:\AneL\MY RIPS\06 - Outside.wav
Pre-gap length 0:00:02.00
Peak level 100.0 %
Extraction speed 3.9 X
Track quality 100.0 %
Test CRC 54F0CD23
Copy CRC 54F0CD23
Accurately ripped (confidence 2) [DD59339B] (AR v2)
Copy OK
Track 7
Filename F:\AneL\MY RIPS\07 - Fragile Ground.wav
Pre-gap length 0:00:00.35
Peak level 94.7 %
Extraction speed 4.1 X
Track quality 100.0 %
Test CRC A31DC87E
Copy CRC A31DC87E
Accurately ripped (confidence 2) [71FEC1BC] (AR v2)
Copy OK
Track 8
Filename F:\AneL\MY RIPS\08 - Two Roads.wav
Pre-gap length 0:00:00.22
Peak level 91.9 %
Extraction speed 4.3 X
Track quality 100.0 %
Test CRC 805CE746
Copy CRC 805CE746
Accurately ripped (confidence 2) [B176DA2F] (AR v2)
Copy OK
Track 9
Filename F:\AneL\MY RIPS\09 - River Runs Free.wav
Pre-gap length 0:00:02.31
Peak level 71.6 %
Extraction speed 4.1 X
Track quality 100.0 %
Test CRC BD31058C
Copy CRC BD31058C
Accurately ripped (confidence 2) [B71DA61F] (AR v2)
Copy OK
Track 10
Filename F:\AneL\MY RIPS\10 - Rolling Clouds.wav
Peak level 98.2 %
Extraction speed 4.8 X
Track quality 100.0 %
Test CRC 302D083D
Copy CRC 302D083D
Accurately ripped (confidence 2) [3CB7ED3F] (AR v2)
Copy OK
Track 11
Filename F:\AneL\MY RIPS\11 - Color.wav
Pre-gap length 0:00:09.03
Peak level 87.9 %
Extraction speed 4.2 X
Track quality 99.9 %
Test CRC 401F463D
Copy CRC 401F463D
Accurately ripped (confidence 2) [755DE0BF] (AR v2)
Copy OK
All tracks accurately ripped
No errors occurred
End of status report
==== Log checksum D57169A5EF63E99B680418AED83695BE843537B880D866FDE4D057A2586FB5E5 ====
 
Содержание индексной карты (.CUE)
REM GENRE Jazz
REM DATE 2014
REM DISCID 8A0E1E0B
REM COMMENT "ExactAudioCopy v1.0b3"
PERFORMER "Slowly Rolling Camera"
TITLE "Slowly Rolling Camera"
FILE "01 - Protagonist.wav" WAVE
TRACK 01 AUDIO
TITLE "Protagonist"
PERFORMER "Slowly Rolling Camera"
INDEX 01 00:00:00
FILE "02 - Dream A Life.wav" WAVE
TRACK 02 AUDIO
TITLE "Dream A Life"
PERFORMER "Slowly Rolling Camera"
INDEX 01 00:00:00
FILE "03 - Rain that Falls.wav" WAVE
TRACK 03 AUDIO
TITLE "Rain that Falls"
PERFORMER "Slowly Rolling Camera"
INDEX 01 00:00:00
TRACK 04 AUDIO
TITLE "Bridge"
PERFORMER "Slowly Rolling Camera"
INDEX 00 06:08:16
FILE "04 - Bridge.wav" WAVE
INDEX 01 00:00:00
TRACK 05 AUDIO
TITLE "Slowly Rolling Camera"
PERFORMER "Slowly Rolling Camera"
INDEX 00 06:16:71
FILE "05 - Slowly Rolling Camera.wav" WAVE
INDEX 01 00:00:00
TRACK 06 AUDIO
TITLE "Outside"
PERFORMER "Slowly Rolling Camera"
INDEX 00 05:16:66
FILE "06 - Outside.wav" WAVE
INDEX 01 00:00:00
TRACK 07 AUDIO
TITLE "Fragile Ground"
PERFORMER "Slowly Rolling Camera"
INDEX 00 05:51:21
FILE "07 - Fragile Ground.wav" WAVE
INDEX 01 00:00:00
TRACK 08 AUDIO
TITLE "Two Roads"
PERFORMER "Slowly Rolling Camera"
INDEX 00 05:45:39
FILE "08 - Two Roads.wav" WAVE
INDEX 01 00:00:00
TRACK 09 AUDIO
TITLE "River Runs Free"
PERFORMER "Slowly Rolling Camera"
INDEX 00 05:05:03
FILE "09 - River Runs Free.wav" WAVE
INDEX 01 00:00:00
FILE "10 - Rolling Clouds.wav" WAVE
TRACK 10 AUDIO
TITLE "Rolling Clouds"
PERFORMER "Slowly Rolling Camera"
INDEX 01 00:00:00
TRACK 11 AUDIO
TITLE "Color"
PERFORMER "Slowly Rolling Camera"
INDEX 00 07:13:45
FILE "11 - Color.wav" WAVE
INDEX 01 00:00:00
Приватный:
Нет (DHT включён)
Размер:
350.64 Мб (367,669,377 байт) » файлов: 25
Участники:
0 раздают, 0 качают (0 участников всего)
Внешние участники:
2 раздают, 1 качают (3 участников всего) [ Обновить ]
No seeders - write a personal message to user M0p94ok. Нет сидеров - пишите личное сообщение пользователю M0p94ok.
09:38
76
Нет комментариев. Ваш будет первым!