Поиск

(Soul, R&B) [CD] Archie Bell & The Drells - Where Will You Go When The Party's Over (1976) - 2010, FLAC (tracks+.cue), lossless

(Soul, R&B) [CD] Archie Bell & The Drells - Where Will You Go When The Party's Over (1976) - 2010, FLAC (tracks+.cue), lossless
Треклист:
Archie Bell & The Drells - Where Will You Go When The Party's Over (1976) Жанр: Soul, R&B
Носитель: CD
Страна-производитель диска (релиза): Japan
Год издания: 2010
Издатель (лейбл): hiladelphia Int Records
Номер по каталогу: EICP-1352
Аудиокодек: FLAC (*.flac)
Тип рипа: tracks+.cue
Битрейт аудио: lossless
Продолжительность: 37:10
Rip by JET 1
Наличие сканов в содержимом раздачи: да
Треклист:
01. Don't Let Love Get You Down (4:22)
02. Where Will You Go When The Party's Over (4:08)
03. Right Here Is Where I Want To Be (5:03)
04. Dancin' Man (5:31)
05. Everybody Have A Good Time (6:17)
06. I Swear You're Beautiful (5:22)
07. Nothing Comes Easy (3:09)
08. I Bet I Can Do That Dance You're Doin' (3:16)
 
 
Лог создания рипа
Exact Audio Copy V1.0 beta 3 from 29. August 2011
EAC extraction logfile from 10. May 2016, 21:12
Archie Bell & The Drells / Where Will You Go When The Party's Over
Used drive : GENERIC CDRCB05 Adapter: 4 ID: 0
Read mode : Secure
Utilize accurate stream : Yes
Defeat audio cache : Yes
Make use of C2 pointers : No
Read offset correction : 102
Overread into Lead-In and Lead-Out : No
Fill up missing offset samples with silence : Yes
Delete leading and trailing silent blocks : No
Null samples used in CRC calculations : Yes
Used interface : Native Win32 interface for Win NT & 2000
Gap handling : Appended to previous track
Used output format : User Defined Encoder
Selected bitrate : 1024 kBit/s
Quality : High
Add ID3 tag : No
Command line compressor : C:\Program Files\FLAC\flac.exe
Additional command line options : -8 -V -T "ARTIST=%artist%" -T "TITLE=%title%" -T "ALBUM=%albumtitle%" -T "DATE=%year%" -T "TRACKNUMBER=%tracknr%" -T "GENRE=%genre%" -T "PERFORMER=%albuminterpret%" -T "COMPOSER=%composer%" %haslyrics%--tag-from-file=LYRICS="%lyricsfile%"%haslyrics% -T "ALBUMARTIST=%albumartist%" -T "DISCNUMBER=%cdnumber%" -T "TOTALDISCS=%totalcds%" -T "TOTALTRACKS=%numtracks%" -T "COMMENT=%comment%" %source% -o %dest%
TOC of the extracted CD
Track | Start | Length | Start sector | End sector
---------------------------------------------------------
1 | 0:00.00 | 4:22.19 | 0 | 19668
2 | 4:22.19 | 4:08.25 | 19669 | 38293
3 | 8:30.44 | 5:03.37 | 38294 | 61055
4 | 13:34.06 | 5:31.09 | 61056 | 85889
5 | 19:05.15 | 6:17.35 | 85890 | 114199
6 | 25:22.50 | 5:21.58 | 114200 | 138332
7 | 30:44.33 | 3:09.31 | 138333 | 152538
8 | 33:53.64 | 3:16.16 | 152539 | 167254
Track 1
Filename F:\POSTSSSSS\Archie Bell & The Drells - Where Will You Go When The Party's Over (1976) [2010 Japan Mini-CD]\01 - Don't Let Love Get You Down.wav
Pre-gap length 0:00:02.00
Peak level 99.9 %
Extraction speed 2.2 X
Track quality 99.9 %
Test CRC 04E56BE2
Copy CRC 04E56BE2
Accurately ripped (confidence 1) [5C9A6FFC] (AR v1)
Copy OK
Track 2
Filename F:\POSTSSSSS\Archie Bell & The Drells - Where Will You Go When The Party's Over (1976) [2010 Japan Mini-CD]\02 - Where Will You Go When The Party's Over.wav
Pre-gap length 0:00:02.44
Peak level 99.8 %
Extraction speed 2.3 X
Track quality 99.9 %
Test CRC 259BF025
Copy CRC 259BF025
Accurately ripped (confidence 1) [058C7634] (AR v1)
Copy OK
Track 3
Filename F:\POSTSSSSS\Archie Bell & The Drells - Where Will You Go When The Party's Over (1976) [2010 Japan Mini-CD]\03 - Right Here Is Where I Want To Be.wav
Pre-gap length 0:00:02.44
Peak level 95.7 %
Extraction speed 3.0 X
Track quality 100.0 %
Test CRC DF7A1B57
Copy CRC DF7A1B57
Accurately ripped (confidence 1) [E1B63577] (AR v1)
Copy OK
Track 4
Filename F:\POSTSSSSS\Archie Bell & The Drells - Where Will You Go When The Party's Over (1976) [2010 Japan Mini-CD]\04 - Dancin' Man.wav
Pre-gap length 0:00:02.44
Peak level 99.9 %
Extraction speed 3.1 X
Track quality 100.0 %
Test CRC 954F7D6C
Copy CRC 954F7D6C
Accurately ripped (confidence 1) [75CF9236] (AR v1)
Copy OK
Track 5
Filename F:\POSTSSSSS\Archie Bell & The Drells - Where Will You Go When The Party's Over (1976) [2010 Japan Mini-CD]\05 - Everybody Have A Good Time.wav
Pre-gap length 0:00:03.44
Peak level 99.9 %
Extraction speed 3.2 X
Track quality 99.9 %
Test CRC 54B41433
Copy CRC 54B41433
Accurately ripped (confidence 1) [377972C6] (AR v1)
Copy OK
Track 6
Filename F:\POSTSSSSS\Archie Bell & The Drells - Where Will You Go When The Party's Over (1976) [2010 Japan Mini-CD]\06 - I Swear You're Beautiful.wav
Pre-gap length 0:00:02.44
Peak level 99.8 %
Extraction speed 3.7 X
Track quality 100.0 %
Test CRC 115380EB
Copy CRC 115380EB
Accurately ripped (confidence 1) [9B146A66] (AR v1)
Copy OK
Track 7
Filename F:\POSTSSSSS\Archie Bell & The Drells - Where Will You Go When The Party's Over (1976) [2010 Japan Mini-CD]\07 - Nothing Comes Easy.wav
Pre-gap length 0:00:02.44
Peak level 99.9 %
Extraction speed 3.6 X
Track quality 100.0 %
Test CRC E0D6639C
Copy CRC E0D6639C
Accurately ripped (confidence 1) [213161B9] (AR v1)
Copy OK
Track 8
Filename F:\POSTSSSSS\Archie Bell & The Drells - Where Will You Go When The Party's Over (1976) [2010 Japan Mini-CD]\08 - I Bet I Can Do That Dance You're Doin'.wav
Pre-gap length 0:00:02.45
Peak level 99.9 %
Extraction speed 3.3 X
Track quality 99.9 %
Test CRC 160DE2FD
Copy CRC 160DE2FD
Accurately ripped (confidence 1) [1212E744] (AR v1)
Copy OK
All tracks accurately ripped
No errors occurred
End of status report
==== Log checksum 100BA94C5ECCCF3669E6A66A0BE6645B7AB5C14F138B0AE8E1259DC843D52F17 ====
 
Содержание индексной карты (.CUE)
REM GENRE Soul
REM DATE 1976
REM DISCID 5B08B608
REM COMMENT "ExactAudioCopy v1.0b3"
PERFORMER "Archie Bell & The Drells"
TITLE "Where Will You Go When The Party's Over"
FILE "01 - Don't Let Love Get You Down.wav" WAVE
TRACK 01 AUDIO
TITLE "Don't Let Love Get You Down"
PERFORMER "Archie Bell & The Drells"
INDEX 01 00:00:00
TRACK 02 AUDIO
TITLE "Where Will You Go When The Party's Over"
PERFORMER "Archie Bell & The Drells"
INDEX 00 04:19:50
FILE "02 - Where Will You Go When The Party's Over.wav" WAVE
INDEX 01 00:00:00
TRACK 03 AUDIO
TITLE "Right Here Is Where I Want To Be"
PERFORMER "Archie Bell & The Drells"
INDEX 00 04:05:56
FILE "03 - Right Here Is Where I Want To Be.wav" WAVE
INDEX 01 00:00:00
TRACK 04 AUDIO
TITLE "Dancin' Man"
PERFORMER "Archie Bell & The Drells"
INDEX 00 05:00:68
FILE "04 - Dancin' Man.wav" WAVE
INDEX 01 00:00:00
TRACK 05 AUDIO
TITLE "Everybody Have A Good Time"
PERFORMER "Archie Bell & The Drells"
INDEX 00 05:27:40
FILE "05 - Everybody Have A Good Time.wav" WAVE
INDEX 01 00:00:00
TRACK 06 AUDIO
TITLE "I Swear You're Beautiful"
PERFORMER "Archie Bell & The Drells"
INDEX 00 06:14:66
FILE "06 - I Swear You're Beautiful.wav" WAVE
INDEX 01 00:00:00
TRACK 07 AUDIO
TITLE "Nothing Comes Easy"
PERFORMER "Archie Bell & The Drells"
INDEX 00 05:19:14
FILE "07 - Nothing Comes Easy.wav" WAVE
INDEX 01 00:00:00
TRACK 08 AUDIO
TITLE "I Bet I Can Do That Dance You're Doin'"
PERFORMER "Archie Bell & The Drells"
INDEX 00 03:06:61
FILE "08 - I Bet I Can Do That Dance You're Doin'.wav" WAVE
INDEX 01 00:00:00
Приватный:
Нет (DHT включён)
Размер:
320.39 Мб (335,951,977 байт) » файлов: 25
Участники:
0 раздают, 0 качают (0 участников всего)
Внешние участники:
3 раздают, 1 качают (4 участников всего) [ Обновить ]
Есть вопросы - пишите личное сообщение пользователю M0p94ok.
10:42
62
Нет комментариев. Ваш будет первым!