Поиск

(Jazz-Funk, Soul-Jazz) [CD] Bobbi Humphrey - Dig This! (1972) - 2014 {TYCJ-81100}, FLAC (tracks+.cue), lossless

(Jazz-Funk, Soul-Jazz) [CD] Bobbi Humphrey - Dig This! (1972) - 2014 {TYCJ-81100}, FLAC (tracks+.cue), lossless
Треклист:
Bobbi Humphrey - Dig This! (1972) Жанр: Jazz-Funk, Soul-Jazz
Носитель: CD
Страна-производитель диска: Japan
Год издания: 2014
Издатель (лейбл): Universal Japan/Blue Note
Номер по каталогу: TYCJ-81100
Аудиокодек: FLAC (*.flac)
Тип рипа: tracks+.cue
Битрейт аудио: lossless
Продолжительность: 39:33
Rip by ruskaval
Наличие сканов в содержимом раздачи: да
Треклист:
01. Lonely Town, Lonely Street (4:37)
02. Is This All? (3:44)
03. Smiling Faces Sometimes (6:22)
04. Virtue (4:27)
05. I Love Every Little Thing About You (4:20)
06. Love Theme From 'Fuzz' (3:47)
07. El Mundo De Maravillas (A World Of Beauty) (7:31)
08. Nubian Lady (4:46)
 
 
Лог создания рипа
Exact Audio Copy V1.1 from 23. June 2015
EAC extraction logfile from 12. May 2016, 21:00
Bobbi Humphrey / Dig This!
Used drive : TSSTcorpCDDVDW SE-208DB Adapter: 1 ID: 0
Read mode : Secure
Utilize accurate stream : Yes
Defeat audio cache : Yes
Make use of C2 pointers : No
Read offset correction : 6
Overread into Lead-In and Lead-Out : No
Fill up missing offset samples with silence : Yes
Delete leading and trailing silent blocks : No
Null samples used in CRC calculations : Yes
Used interface : Native Win32 interface for Win NT & 2000
Gap handling : Appended to previous track
Used output format : User Defined Encoder
Selected bitrate : 1024 kBit/s
Quality : High
Add ID3 tag : No
Command line compressor : C:\Program Files (x86)\FLAC Frontend\tools\flac.exe
Additional command line options : -8 -V -T "ARTIST=%artist%" -T "TITLE=%title%" -T "ALBUM=%albumtitle%" -T "DATE=%year%" -T "TRACKNUMBER=%tracknr%" -T "TOTALTRACKS=%numtracks%" -T "GENRE=%genre%" -T "ALBUMARTIST=%albumartist%" -T "ALBUM ARTIST=%albumartist%" -T "COMMENT=EAC Secure Mode, Test & Copy, AccurateRip, FLAC -8" %source%
TOC of the extracted CD
Track | Start | Length | Start sector | End sector
---------------------------------------------------------
1 | 0:00.00 | 4:36.51 | 0 | 20750
2 | 4:36.51 | 3:43.51 | 20751 | 37526
3 | 8:20.27 | 6:21.53 | 37527 | 66154
4 | 14:42.05 | 4:27.04 | 66155 | 86183
5 | 19:09.09 | 4:19.48 | 86184 | 105656
6 | 23:28.57 | 3:47.18 | 105657 | 122699
7 | 27:16.00 | 7:31.31 | 122700 | 156555
8 | 34:47.31 | 4:45.72 | 156556 | 178002
Track 1
Filename D:\_EAC\Bobbi Humphrey - Dig This! (1972) [FLAC] {TYCJ-81100}\01 - Lonely Town, Lonely Street.wav
Pre-gap length 0:00:02.00
Peak level 100.0 %
Extraction speed 1.0 X
Track quality 100.0 %
Test CRC 8E3224DF
Copy CRC 8E3224DF
Track not present in AccurateRip database
Copy OK
Track 2
Filename D:\_EAC\Bobbi Humphrey - Dig This! (1972) [FLAC] {TYCJ-81100}\02 - Is This All_.wav
Pre-gap length 0:00:02.43
Peak level 93.9 %
Extraction speed 1.1 X
Track quality 100.0 %
Test CRC 770068C8
Copy CRC 770068C8
Track not present in AccurateRip database
Copy OK
Track 3
Filename D:\_EAC\Bobbi Humphrey - Dig This! (1972) [FLAC] {TYCJ-81100}\03 - Smiling Faces Sometimes.wav
Pre-gap length 0:00:02.43
Peak level 100.0 %
Extraction speed 1.3 X
Track quality 100.0 %
Test CRC E682E3BC
Copy CRC E682E3BC
Track not present in AccurateRip database
Copy OK
Track 4
Filename D:\_EAC\Bobbi Humphrey - Dig This! (1972) [FLAC] {TYCJ-81100}\04 - Virtue.wav
Pre-gap length 0:00:02.43
Peak level 97.8 %
Extraction speed 1.3 X
Track quality 100.0 %
Test CRC 60C54CD5
Copy CRC 60C54CD5
Track not present in AccurateRip database
Copy OK
Track 5
Filename D:\_EAC\Bobbi Humphrey - Dig This! (1972) [FLAC] {TYCJ-81100}\05 - I Love Every Little Thing About You.wav
Pre-gap length 0:00:02.43
Peak level 99.7 %
Extraction speed 1.3 X
Track quality 100.0 %
Test CRC 6D349D34
Copy CRC 6D349D34
Track not present in AccurateRip database
Copy OK
Track 6
Filename D:\_EAC\Bobbi Humphrey - Dig This! (1972) [FLAC] {TYCJ-81100}\06 - Love Theme From ''Fuzz''.wav
Pre-gap length 0:00:02.43
Peak level 100.0 %
Extraction speed 1.4 X
Track quality 100.0 %
Test CRC D3F19231
Copy CRC D3F19231
Track not present in AccurateRip database
Copy OK
Track 7
Filename D:\_EAC\Bobbi Humphrey - Dig This! (1972) [FLAC] {TYCJ-81100}\07 - El Mundo De Maravillas (A World Of Beauty).wav
Pre-gap length 0:00:02.43
Peak level 100.0 %
Extraction speed 1.6 X
Track quality 100.0 %
Test CRC 8E0A9FAE
Copy CRC 8E0A9FAE
Track not present in AccurateRip database
Copy OK
Track 8
Filename D:\_EAC\Bobbi Humphrey - Dig This! (1972) [FLAC] {TYCJ-81100}\08 - Nubian Lady.wav
Pre-gap length 0:00:02.43
Peak level 100.0 %
Extraction speed 1.6 X
Track quality 100.0 %
Test CRC 64B35604
Copy CRC 64B35604
Track not present in AccurateRip database
Copy OK
None of the tracks are present in the AccurateRip database
No errors occurred
End of status report
==== Log checksum 4907DB82D5EEF53A03031767EED11394B1AC0A3A5A3C96F91D94304CABC4F195 ====
 
Содержание индексной карты (.CUE)
REM GENRE Jazz
REM DATE 1972
REM DISCID 61094508
REM COMMENT "ExactAudioCopy v1.1"
PERFORMER "Bobbi Humphrey"
TITLE "Dig This!"
FILE "01 - Lonely Town, Lonely Street.wav" WAVE
TRACK 01 AUDIO
TITLE "Lonely Town, Lonely Street"
PERFORMER "Bobbi Humphrey"
INDEX 01 00:00:00
TRACK 02 AUDIO
TITLE "Is This All?"
PERFORMER "Bobbi Humphrey"
INDEX 00 04:34:08
FILE "02 - Is This All_.wav" WAVE
INDEX 01 00:00:00
TRACK 03 AUDIO
TITLE "Smiling Faces Sometimes"
PERFORMER "Bobbi Humphrey"
INDEX 00 03:41:08
FILE "03 - Smiling Faces Sometimes.wav" WAVE
INDEX 01 00:00:00
TRACK 04 AUDIO
TITLE "Virtue"
PERFORMER "Bobbi Humphrey"
INDEX 00 06:19:10
FILE "04 - Virtue.wav" WAVE
INDEX 01 00:00:00
TRACK 05 AUDIO
TITLE "I Love Every Little Thing About You"
PERFORMER "Bobbi Humphrey"
INDEX 00 04:24:36
FILE "05 - I Love Every Little Thing About You.wav" WAVE
INDEX 01 00:00:00
TRACK 06 AUDIO
TITLE "Love Theme From 'Fuzz'"
PERFORMER "Bobbi Humphrey"
INDEX 00 04:17:05
FILE "06 - Love Theme From ''Fuzz''.wav" WAVE
INDEX 01 00:00:00
TRACK 07 AUDIO
TITLE "El Mundo De Maravillas (A World Of Beauty)"
PERFORMER "Bobbi Humphrey"
INDEX 00 03:44:50
FILE "07 - El Mundo De Maravillas (A World Of Beauty).wav" WAVE
INDEX 01 00:00:00
TRACK 08 AUDIO
TITLE "Nubian Lady"
PERFORMER "Bobbi Humphrey"
INDEX 00 07:28:63
FILE "08 - Nubian Lady.wav" WAVE
INDEX 01 00:00:00
 
Состав
Bobbi Humphrey - flute
George Marge - oboe, english horn
Seymour Berman, Paul Gershman, Irving Spice, Paul Winter - violin
Julian Barber - viola
Seymour Barab - cello
Eugene Bianco - harp
Harry Whitaker - electric piano
Paul Griffin - electric piano, clavinet
William Fontaine, David Spinozza - guitar
Ron Carter - bass
Wilbur Bascomb Jr. - electric bass
Alphonse Mouzon - drums, bell tree, arranger
Warren Smith - percussion
Wade Marcus, Horace Ott - arranger
Приватный:
Нет (DHT включён)
Размер:
549.48 Мб (576,170,470 байт) » файлов: 31
Участники:
0 раздают, 0 качают (0 участников всего)
Внешние участники:
3 раздают, 1 качают (4 участников всего) [ Обновить ]
Есть вопросы - пишите личное сообщение пользователю M0p94ok.
10:41
49
Нет комментариев. Ваш будет первым!