Поиск

(R&B, Blues, Funk, Soul) Donny Hathaway - Never My Love (The Anthology) - 2013, FLAC (tracks+.cue), lossless

(R&B, Blues, Funk, Soul) Donny Hathaway - Never My Love (The Anthology) - 2013, FLAC (tracks+.cue), lossless
Треклист:
Donny Hathaway - Never My Love (The Anthology) - 2013
Жанр: R&B, Blues, Funk, Soul
Страна-производитель диска: UK
Год первого выпуска: 2013
Год настоящего издания: 11 Nov 2013
Издатель (лейбл): ATCO Records/Rhino Records
Номер по каталогу: 8122796543
Format: CD, Album
Страна исполнителя (группы): US
Аудиокодек: FLAC (*.flac)
Тип рипа: tracks+.cue
Битрейт аудио: lossless
Источник (релизер): интернет
Наличие сканов в содержимом раздачи: да
 
CD1: Favourites
Продолжительность: 01:19:10
Треклист:
01. I Thank You Baby (June & Donnie) (02:39)
02. Just Another Reason (Donnie Hathaway & June Conquest) (02:30)
03. The Ghetto Part 1 (Single Version) (02:44)
04. The Ghetto Part 2 (Single Version) (02:49)
05. Thank You Master (For My Soul) (Promo Edit) (03:25)
06. Voices Inside (Everything Is Everything) (03:26)
07. Tryin’ Times (03:14)
08. To Be Young, Gifted and Black (06:43)
09. I Believe to My Soul (03:50)
10. This Christmas (03:32)
11. A Song for You (Single Version) (03:23)
12. Magnificent Sanctuary Band (Single Version) (03:37)
13. Giving Up (Single Version) (03:52)
14. Come Back Charleston Blue (Donny Hathaway with Margie Joseph) (02:06)
15. Little Ghetto Boy (Studio Version) (03:51)
16. Valdez In The Country (03:35)
17. I Love You More Than You’ll Ever Know (Single Version) (04:35)
18. Lord Help Me (04:03)
19. Come Little Children (Single Version) (03:42)
20. Love, Love, Love (03:24)
21. Someday We’ll All Be Free (04:14)
22. You Were Meant for Me (03:47)
 
Лог создания рипа
Exact Audio Copy V1.0 beta 3 from 29. August 2011
EAC extraction logfile from 31. May 2014, 13:16
Donny Hathaway / Never My Love: The Anthology (Disc 1)
Used drive : PLEXTOR DVDR PX-891SA Adapter: 4 ID: 0
Read mode : Secure
Utilize accurate stream : Yes
Defeat audio cache : Yes
Make use of C2 pointers : No
Read offset correction : 6
Overread into Lead-In and Lead-Out : No
Fill up missing offset samples with silence : Yes
Delete leading and trailing silent blocks : No
Null samples used in CRC calculations : Yes
Used interface : Native Win32 interface for Win NT & 2000
Gap handling : Appended to previous track
Used output format : User Defined Encoder
Selected bitrate : 128 kBit/s
Quality : High
Add ID3 tag : No
Command line compressor : C:\Program Files (x86)\Exact Audio Copy\FLAC\FLAC.EXE
Additional command line options : -8 -V -T "ARTIST=%artist%" -T "TITLE=%title%" -T "ALBUM=%albumtitle%" -T "DATE=%year%" -T "TRACKNUMBER=%tracknr%" -T "TOTALTRACKS=%numtracks%" -T "GENRE=%genre%" -T "ALBUMARTIST=%albumartist%" -T "ALBUM ARTIST=%albumartist%" -T "COMMENT=EAC Secure Mode, Test & Copy, AccurateRip, FLAC -8" %source%
TOC of the extracted CD
Track | Start | Length | Start sector | End sector
---------------------------------------------------------
1 | 0:00.00 | 2:39.40 | 0 | 11964
2 | 2:39.40 | 2:30.13 | 11965 | 23227
3 | 5:09.53 | 2:44.08 | 23228 | 35535
4 | 7:53.61 | 2:49.20 | 35536 | 48230
5 | 10:43.06 | 3:25.58 | 48231 | 63663
6 | 14:08.64 | 3:26.65 | 63664 | 79178
7 | 17:35.54 | 3:14.03 | 79179 | 93731
8 | 20:49.57 | 6:43.30 | 93732 | 123986
9 | 27:33.12 | 3:50.57 | 123987 | 141293
10 | 31:23.69 | 3:32.20 | 141294 | 157213
11 | 34:56.14 | 3:23.11 | 157214 | 172449
12 | 38:19.25 | 3:37.04 | 172450 | 188728
13 | 41:56.29 | 3:52.27 | 188729 | 206155
14 | 45:48.56 | 2:06.73 | 206156 | 215678
15 | 47:55.54 | 3:51.27 | 215679 | 233030
16 | 51:47.06 | 3:35.27 | 233031 | 249182
17 | 55:22.33 | 4:35.72 | 249183 | 269879
18 | 59:58.30 | 4:03.01 | 269880 | 288105
19 | 64:01.31 | 3:42.48 | 288106 | 304803
20 | 67:44.04 | 3:24.04 | 304804 | 320107
21 | 71:08.08 | 4:14.50 | 320108 | 339207
22 | 75:22.58 | 3:47.39 | 339208 | 356271
Track 1
Filename L:\flac rips\01 - June & Donnie - I Thank You Baby.wav
Pre-gap length 0:00:02.00
Peak level 100.0 %
Extraction speed 5.5 X
Track quality 100.0 %
Test CRC D7131B5A
Copy CRC D7131B5A
Accurately ripped (confidence 14) [00F1BE63] (AR v2)
Copy OK
Track 2
Filename L:\flac rips\02 - June Conquest,Donny Hathaway - Just Another Reason.wav
Peak level 100.0 %
Extraction speed 5.7 X
Track quality 100.0 %
Test CRC C2F26F0A
Copy CRC C2F26F0A
Accurately ripped (confidence 14) [0CFB6C5C] (AR v2)
Copy OK
Track 3
Filename L:\flac rips\03 - Donny Hathaway - The Ghetto, Pt. 1.wav
Peak level 100.0 %
Extraction speed 6.1 X
Track quality 100.0 %
Test CRC B4C396CC
Copy CRC B4C396CC
Accurately ripped (confidence 14) [14B924F6] (AR v2)
Copy OK
Track 4
Filename L:\flac rips\04 - Donny Hathaway - The Ghetto, Pt. 2.wav
Peak level 100.0 %
Extraction speed 6.4 X
Track quality 100.0 %
Test CRC 3F41F2B8
Copy CRC 3F41F2B8
Accurately ripped (confidence 14) [F256A1CE] (AR v2)
Copy OK
Track 5
Filename L:\flac rips\05 - Donny Hathaway - Thank You Master (For My Soul) [Promo Edit].wav
Peak level 100.0 %
Extraction speed 7.1 X
Track quality 100.0 %
Test CRC 358925C1
Copy CRC 358925C1
Accurately ripped (confidence 14) [E7EFB447] (AR v2)
Copy OK
Track 6
Filename L:\flac rips\06 - Donny Hathaway - Voices Inside (Everything Is Everything).wav
Peak level 100.0 %
Extraction speed 7.4 X
Track quality 100.0 %
Test CRC F0AA258C
Copy CRC F0AA258C
Accurately ripped (confidence 14) [34585699] (AR v2)
Copy OK
Track 7
Filename L:\flac rips\07 - Donny Hathaway - Tryin' Times.wav
Peak level 100.0 %
Extraction speed 7.6 X
Track quality 100.0 %
Test CRC 6508E9EA
Copy CRC 6508E9EA
Accurately ripped (confidence 14) [B9EC0019] (AR v2)
Copy OK
Track 8
Filename L:\flac rips\08 - Donny Hathaway - To Be Young, Gifted and Black.wav
Peak level 100.0 %
Extraction speed 7.8 X
Track quality 99.9 %
Test CRC 9235634F
Copy CRC 9235634F
Accurately ripped (confidence 14) [B9B63426] (AR v2)
Copy OK
Track 9
Filename L:\flac rips\09 - Donny Hathaway - I Believe to My Soul.wav
Peak level 100.0 %
Extraction speed 7.2 X
Track quality 99.9 %
Test CRC E1400031
Copy CRC E1400031
Accurately ripped (confidence 14) [B11F158C] (AR v2)
Copy OK
Track 10
Filename L:\flac rips\10 - Donny Hathaway - This Christmas.wav
Peak level 100.0 %
Extraction speed 9.1 X
Track quality 100.0 %
Test CRC 0B6B4555
Copy CRC 0B6B4555
Accurately ripped (confidence 14) [63884CE3] (AR v2)
Copy OK
Track 11
Filename L:\flac rips\11 - Donny Hathaway - A Song for You.wav
Peak level 100.0 %
Extraction speed 7.3 X
Track quality 99.9 %
Test CRC D677138C
Copy CRC D677138C
Accurately ripped (confidence 14) [51C952EB] (AR v2)
Copy OK
Track 12
Filename L:\flac rips\12 - Donny Hathaway - Magnificent Sanctuary Band.wav
Peak level 100.0 %
Extraction speed 9.6 X
Track quality 100.0 %
Test CRC 99DDC813
Copy CRC 99DDC813
Accurately ripped (confidence 14) [6F50677B] (AR v2)
Copy OK
Track 13
Filename L:\flac rips\13 - Donny Hathaway - Giving Up.wav
Peak level 100.0 %
Extraction speed 10.1 X
Track quality 100.0 %
Test CRC 947BA98E
Copy CRC 947BA98E
Accurately ripped (confidence 14) [7A1E9128] (AR v2)
Copy OK
Track 14
Filename L:\flac rips\14 - Margie Joseph,Donny Hathaway - Come Back Charleston Blue.wav
Peak level 100.0 %
Extraction speed 9.1 X
Track quality 100.0 %
Test CRC 8C665F52
Copy CRC 8C665F52
Accurately ripped (confidence 14) [6DCCF51E] (AR v2)
Copy OK
Track 15
Filename L:\flac rips\15 - Donny Hathaway - Little Ghetto Boy [Studio Version].wav
Peak level 100.0 %
Extraction speed 10.5 X
Track quality 100.0 %
Test CRC BE223C7E
Copy CRC BE223C7E
Accurately ripped (confidence 14) [8EC0542F] (AR v2)
Copy OK
Track 16
Filename L:\flac rips\16 - Donny Hathaway - Valdez in the Country.wav
Peak level 100.0 %
Extraction speed 10.6 X
Track quality 100.0 %
Test CRC A458E05D
Copy CRC A458E05D
Accurately ripped (confidence 14) [17109948] (AR v2)
Copy OK
Track 17
Filename L:\flac rips\17 - Donny Hathaway - I Love You More Than You'll Ever Know.wav
Peak level 100.0 %
Extraction speed 11.2 X
Track quality 100.0 %
Test CRC 5CEE637A
Copy CRC 5CEE637A
Accurately ripped (confidence 14) [CBB074A0] (AR v2)
Copy OK
Track 18
Filename L:\flac rips\18 - Donny Hathaway - Lord Help Me.wav
Peak level 100.0 %
Extraction speed 9.2 X
Track quality 99.9 %
Test CRC 93CB68CB
Copy CRC 93CB68CB
Accurately ripped (confidence 14) [C5E02103] (AR v2)
Copy OK
Track 19
Filename L:\flac rips\19 - Donny Hathaway - Come Little Children.wav
Peak level 100.0 %
Extraction speed 11.5 X
Track quality 100.0 %
Test CRC A27A4807
Copy CRC A27A4807
Accurately ripped (confidence 14) [E4AB58D5] (AR v2)
Copy OK
Track 20
Filename L:\flac rips\20 - Donny Hathaway - Love, Love, Love.wav
Peak level 100.0 %
Extraction speed 11.5 X
Track quality 100.0 %
Test CRC 0F5F178F
Copy CRC 0F5F178F
Accurately ripped (confidence 14) [3CDC00D7] (AR v2)
Copy OK
Track 21
Filename L:\flac rips\21 - Donny Hathaway - Someday We'll All Be Free.wav
Peak level 100.0 %
Extraction speed 12.1 X
Track quality 100.0 %
Test CRC EB1850DD
Copy CRC EB1850DD
Accurately ripped (confidence 14) [6E82BA11] (AR v2)
Copy OK
Track 22
Filename L:\flac rips\22 - Donny Hathaway - You Were Meant for Me.wav
Peak level 100.0 %
Extraction speed 12.1 X
Track quality 100.0 %
Test CRC 81AB3A3E
Copy CRC 81AB3A3E
Accurately ripped (confidence 14) [4656C28A] (AR v2)
Copy OK
All tracks accurately ripped
No errors occurred
End of status report
==== Log checksum 9013FF7B8F47B9354C184936A11419EB998A9CB94EB48C52C052B53C525C9C9C ====
 
Содержание индексной карты (.CUE)
REM GENRE R&B
REM DATE 2013
REM DISCID 28128E16
REM COMMENT "ExactAudioCopy v1.0b3"
PERFORMER "Donny Hathaway"
TITLE "Never My Love: The Anthology (Disc 1)"
FILE "01 - June & Donnie - I Thank You Baby.wav" WAVE
TRACK 01 AUDIO
TITLE "I Thank You Baby"
PERFORMER "June & Donnie"
INDEX 01 00:00:00
FILE "02 - June Conquest,Donny Hathaway - Just Another Reason.wav" WAVE
TRACK 02 AUDIO
TITLE "Just Another Reason"
PERFORMER "June Conquest/Donny Hathaway"
INDEX 01 00:00:00
FILE "03 - Donny Hathaway - The Ghetto, Pt. 1.wav" WAVE
TRACK 03 AUDIO
TITLE "The Ghetto, Pt. 1"
PERFORMER "Donny Hathaway"
INDEX 01 00:00:00
FILE "04 - Donny Hathaway - The Ghetto, Pt. 2.wav" WAVE
TRACK 04 AUDIO
TITLE "The Ghetto, Pt. 2"
PERFORMER "Donny Hathaway"
INDEX 01 00:00:00
FILE "05 - Donny Hathaway - Thank You Master (For My Soul) [Promo Edit].wav" WAVE
TRACK 05 AUDIO
TITLE "Thank You Master (For My Soul) [Promo Edit]"
PERFORMER "Donny Hathaway"
INDEX 01 00:00:00
FILE "06 - Donny Hathaway - Voices Inside (Everything Is Everything).wav" WAVE
TRACK 06 AUDIO
TITLE "Voices Inside (Everything Is Everything)"
PERFORMER "Donny Hathaway"
INDEX 01 00:00:00
FILE "07 - Donny Hathaway - Tryin' Times.wav" WAVE
TRACK 07 AUDIO
TITLE "Tryin' Times"
PERFORMER "Donny Hathaway"
INDEX 01 00:00:00
FILE "08 - Donny Hathaway - To Be Young, Gifted and Black.wav" WAVE
TRACK 08 AUDIO
TITLE "To Be Young, Gifted and Black"
PERFORMER "Donny Hathaway"
INDEX 01 00:00:00
FILE "09 - Donny Hathaway - I Believe to My Soul.wav" WAVE
TRACK 09 AUDIO
TITLE "I Believe to My Soul"
PERFORMER "Donny Hathaway"
INDEX 01 00:00:00
FILE "10 - Donny Hathaway - This Christmas.wav" WAVE
TRACK 10 AUDIO
TITLE "This Christmas"
PERFORMER "Donny Hathaway"
INDEX 01 00:00:00
FILE "11 - Donny Hathaway - A Song for You.wav" WAVE
TRACK 11 AUDIO
TITLE "A Song for You"
PERFORMER "Donny Hathaway"
INDEX 01 00:00:00
FILE "12 - Donny Hathaway - Magnificent Sanctuary Band.wav" WAVE
TRACK 12 AUDIO
TITLE "Magnificent Sanctuary Band"
PERFORMER "Donny Hathaway"
INDEX 01 00:00:00
FILE "13 - Donny Hathaway - Giving Up.wav" WAVE
TRACK 13 AUDIO
TITLE "Giving Up"
PERFORMER "Donny Hathaway"
INDEX 01 00:00:00
FILE "14 - Margie Joseph,Donny Hathaway - Come Back Charleston Blue.wav" WAVE
TRACK 14 AUDIO
TITLE "Come Back Charleston Blue"
PERFORMER "Margie Joseph/Donny Hathaway"
INDEX 01 00:00:00
FILE "15 - Donny Hathaway - Little Ghetto Boy [Studio Version].wav" WAVE
TRACK 15 AUDIO
TITLE "Little Ghetto Boy [Studio Version]"
PERFORMER "Donny Hathaway"
INDEX 01 00:00:00
FILE "16 - Donny Hathaway - Valdez in the Country.wav" WAVE
TRACK 16 AUDIO
TITLE "Valdez in the Country"
PERFORMER "Donny Hathaway"
INDEX 01 00:00:00
FILE "17 - Donny Hathaway - I Love You More Than You'll Ever Know.wav" WAVE
TRACK 17 AUDIO
TITLE "I Love You More Than You'll Ever Know"
PERFORMER "Donny Hathaway"
INDEX 01 00:00:00
FILE "18 - Donny Hathaway - Lord Help Me.wav" WAVE
TRACK 18 AUDIO
TITLE "Lord Help Me"
PERFORMER "Donny Hathaway"
INDEX 01 00:00:00
FILE "19 - Donny Hathaway - Come Little Children.wav" WAVE
TRACK 19 AUDIO
TITLE "Come Little Children"
PERFORMER "Donny Hathaway"
INDEX 01 00:00:00
FILE "20 - Donny Hathaway - Love, Love, Love.wav" WAVE
TRACK 20 AUDIO
TITLE "Love, Love, Love"
PERFORMER "Donny Hathaway"
INDEX 01 00:00:00
FILE "21 - Donny Hathaway - Someday We'll All Be Free.wav" WAVE
TRACK 21 AUDIO
TITLE "Someday We'll All Be Free"
PERFORMER "Donny Hathaway"
INDEX 01 00:00:00
FILE "22 - Donny Hathaway - You Were Meant for Me.wav" WAVE
TRACK 22 AUDIO
TITLE "You Were Meant for Me"
PERFORMER "Donny Hathaway"
INDEX 01 00:00:00
 
Лог проверки качества
AUDIOCHECKER v2.0 beta (build 457) - by Dester - opdester@freemail.hu
Path: ...\CD1
01 -=- 01 - June & Donnie - I Thank You Baby.flac -=- CDDA (100%)
02 -=- 02 - June Conquest,Donny Hathaway - Just Another Reason.flac -=- CDDA (100%)
03 -=- 03 - Donny Hathaway - The Ghetto, Pt. 1.flac -=- CDDA (100%)
04 -=- 04 - Donny Hathaway - The Ghetto, Pt. 2.flac -=- CDDA (100%)
05 -=- 05 - Donny Hathaway - Thank You Master (For My Soul) [Promo Edit].flac -=- CDDA (100%)
06 -=- 06 - Donny Hathaway - Voices Inside (Everything Is Everything).flac -=- CDDA (100%)
07 -=- 07 - Donny Hathaway - Tryin' Times.flac -=- CDDA (100%)
08 -=- 08 - Donny Hathaway - To Be Young, Gifted and Black.flac -=- CDDA (99%)
09 -=- 09 - Donny Hathaway - I Believe to My Soul.flac -=- CDDA (100%)
10 -=- 10 - Donny Hathaway - This Christmas.flac -=- CDDA (100%)
11 -=- 11 - Donny Hathaway - A Song for You.flac -=- CDDA (100%)
12 -=- 12 - Donny Hathaway - Magnificent Sanctuary Band.flac -=- CDDA (100%)
13 -=- 13 - Donny Hathaway - Giving Up.flac -=- CDDA (99%)
14 -=- 14 - Margie Joseph,Donny Hathaway - Come Back Charleston Blue.flac -=- CDDA (100%)
15 -=- 15 - Donny Hathaway - Little Ghetto Boy [Studio Version].flac -=- CDDA (100%)
16 -=- 16 - Donny Hathaway - Valdez in the Country.flac -=- CDDA (100%)
17 -=- 17 - Donny Hathaway - I Love You More Than You'll Ever Know.flac -=- CDDA (99%)
18 -=- 18 - Donny Hathaway - Lord Help Me.flac -=- CDDA (100%)
19 -=- 19 - Donny Hathaway - Come Little Children.flac -=- CDDA (100%)
20 -=- 20 - Donny Hathaway - Love, Love, Love.flac -=- CDDA (100%)
21 -=- 21 - Donny Hathaway - Someday We'll All Be Free.flac -=- CDDA (100%)
22 -=- 22 - Donny Hathaway - You Were Meant for Me.flac -=- CDDA (100%)
Summary 99,86% CDDA
 
CD2: Unreleased Studio Recordings
Продолжительность: 01:10:00
Треклист:
01. Never My Love (04:38)
02. A Lot of Soul (05:15)
03. Let’s Groove (06:47)
04. Latin Time (06:10)
05. Tally Rand (02:25)
06. Memory of Our Love (02:55)
07. Sunshine Over Showers (04:40)
08. After the Dance Is Done (04:25)
09. Don’t Turn Away (02:48)
10. Always the Same (03:00)
11. Brown Eyed Lady (Instrumental) (03:00)
12. The Sands of Time and Changes (03:00)
13. Zyzygy Concerto (20:22)
 
Лог создания рипа
Exact Audio Copy V1.0 beta 3 from 29. August 2011
EAC extraction logfile from 31. May 2014, 14:48
Donny Hathaway / Never My Love The Anthology (Disc 2)
Used drive : PLEXTOR DVDR PX-891SA Adapter: 4 ID: 0
Read mode : Secure
Utilize accurate stream : Yes
Defeat audio cache : Yes
Make use of C2 pointers : No
Read offset correction : 6
Overread into Lead-In and Lead-Out : No
Fill up missing offset samples with silence : Yes
Delete leading and trailing silent blocks : No
Null samples used in CRC calculations : Yes
Used interface : Native Win32 interface for Win NT & 2000
Gap handling : Appended to previous track
Used output format : User Defined Encoder
Selected bitrate : 128 kBit/s
Quality : High
Add ID3 tag : No
Command line compressor : C:\Program Files (x86)\Exact Audio Copy\FLAC\FLAC.EXE
Additional command line options : -8 -V -T "ARTIST=%artist%" -T "TITLE=%title%" -T "ALBUM=%albumtitle%" -T "DATE=%year%" -T "TRACKNUMBER=%tracknr%" -T "TOTALTRACKS=%numtracks%" -T "GENRE=%genre%" -T "ALBUMARTIST=%albumartist%" -T "ALBUM ARTIST=%albumartist%" -T "COMMENT=EAC Secure Mode, Test & Copy, AccurateRip, FLAC -8" %source%
TOC of the extracted CD
Track | Start | Length | Start sector | End sector
---------------------------------------------------------
1 | 0:00.00 | 4:38.21 | 0 | 20870
2 | 4:38.21 | 5:15.64 | 20871 | 44559
3 | 9:54.10 | 6:47.45 | 44560 | 75129
4 | 16:41.55 | 6:10.21 | 75130 | 102900
5 | 22:52.01 | 2:25.20 | 102901 | 113795
6 | 25:17.21 | 2:55.70 | 113796 | 126990
7 | 28:13.16 | 4:40.49 | 126991 | 148039
8 | 32:53.65 | 4:25.26 | 148040 | 167940
9 | 37:19.16 | 2:48.34 | 167941 | 180574
10 | 40:07.50 | 3:00.07 | 180575 | 194081
11 | 43:07.57 | 3:00.50 | 194082 | 207631
12 | 46:08.32 | 3:30.15 | 207632 | 223396
13 | 49:38.47 | 20:22.23 | 223397 | 315069
Track 1
Filename L:\flac rips\01 - Never My Love.wav
Pre-gap length 0:00:02.00
Peak level 100.0 %
Extraction speed 6.0 X
Track quality 100.0 %
Test CRC A4EAE327
Copy CRC A4EAE327
Accurately ripped (confidence 13) [DD163B62] (AR v2)
Copy OK
Track 2
Filename L:\flac rips\02 - A Lot of Soul.wav
Peak level 81.1 %
Extraction speed 6.8 X
Track quality 100.0 %
Test CRC 25223E9E
Copy CRC 25223E9E
Accurately ripped (confidence 13) [3398EF58] (AR v2)
Copy OK
Track 3
Filename L:\flac rips\03 - Let's Groove.wav
Peak level 100.0 %
Extraction speed 7.7 X
Track quality 100.0 %
Test CRC 05A6A641
Copy CRC 05A6A641
Accurately ripped (confidence 13) [B431DC95] (AR v2)
Copy OK
Track 4
Filename L:\flac rips\04 - Latin Time.wav
Peak level 100.0 %
Extraction speed 8.4 X
Track quality 100.0 %
Test CRC BD439B65
Copy CRC BD439B65
Accurately ripped (confidence 13) [71FD98E5] (AR v2)
Copy OK
Track 5
Filename L:\flac rips\05 - Tally Rand.wav
Peak level 100.0 %
Extraction speed 7.7 X
Track quality 100.0 %
Test CRC CEA32AB3
Copy CRC CEA32AB3
Accurately ripped (confidence 13) [DA9BFA2E] (AR v2)
Copy OK
Track 6
Filename L:\flac rips\06 - Memory of Our Love.wav
Peak level 100.0 %
Extraction speed 6.4 X
Track quality 99.9 %
Test CRC 2DE6C020
Copy CRC 2DE6C020
Accurately ripped (confidence 13) [9C878432] (AR v2)
Copy OK
Track 7
Filename L:\flac rips\07 - Sunshine and Showers.wav
Peak level 100.0 %
Extraction speed 9.1 X
Track quality 100.0 %
Test CRC 3C867590
Copy CRC 3C867590
Accurately ripped (confidence 13) [4E00D9DD] (AR v2)
Copy OK
Track 8
Filename L:\flac rips\08 - After the Dance is Done.wav
Peak level 100.0 %
Extraction speed 9.5 X
Track quality 100.0 %
Test CRC 57862D65
Copy CRC 57862D65
Accurately ripped (confidence 12) [22279054] (AR v2)
Copy OK
Track 9
Filename L:\flac rips\09 - Don't Turn Away.wav
Peak level 100.0 %
Extraction speed 9.1 X
Track quality 100.0 %
Test CRC C4E79F79
Copy CRC C4E79F79
Accurately ripped (confidence 13) [06FB1112] (AR v2)
Copy OK
Track 10
Filename L:\flac rips\10 - Always the Same.wav
Peak level 100.0 %
Extraction speed 9.4 X
Track quality 100.0 %
Test CRC DD58CC9B
Copy CRC DD58CC9B
Accurately ripped (confidence 13) [5039169A] (AR v2)
Copy OK
Track 11
Filename L:\flac rips\11 - Brown Eyed Lady.wav
Peak level 100.0 %
Extraction speed 9.7 X
Track quality 100.0 %
Test CRC 7D8B00B9
Copy CRC 7D8B00B9
Accurately ripped (confidence 13) [6F48F55B] (AR v2)
Copy OK
Track 12
Filename L:\flac rips\12 - The Sands of Time.wav
Peak level 90.0 %
Extraction speed 10.2 X
Track quality 100.0 %
Test CRC 151F092C
Copy CRC 151F092C
Accurately ripped (confidence 13) [447DDFF3] (AR v2)
Copy OK
Track 13
Filename L:\flac rips\13 - Zyzygy Concerto.wav
Peak level 100.0 %
Extraction speed 12.4 X
Track quality 100.0 %
Test CRC 7441076A
Copy CRC 7441076A
Accurately ripped (confidence 12) [072A42C7] (AR v2)
Copy OK
All tracks accurately ripped
No errors occurred
End of status report
==== Log checksum 65639121E73C5871E89FE43097873DD6D6E099A050C17BCA9BFCB0A47F73D4B0 ====
 
Содержание индексной карты (.CUE)
REM GENRE R&B
REM DATE 2013
REM DISCID C110680D
REM COMMENT "ExactAudioCopy v1.0b3"
PERFORMER "Donny Hathaway"
TITLE "Never My Love The Anthology (Disc 2)"
FILE "01 - Never My Love.wav" WAVE
TRACK 01 AUDIO
TITLE "Never My Love"
PERFORMER "Donny Hathaway"
INDEX 01 00:00:00
FILE "02 - A Lot of Soul.wav" WAVE
TRACK 02 AUDIO
TITLE "A Lot of Soul"
PERFORMER "Donny Hathaway"
INDEX 01 00:00:00
FILE "03 - Let's Groove.wav" WAVE
TRACK 03 AUDIO
TITLE "Let's Groove"
PERFORMER "Donny Hathaway"
INDEX 01 00:00:00
FILE "04 - Latin Time.wav" WAVE
TRACK 04 AUDIO
TITLE "Latin Time"
PERFORMER "Donny Hathaway"
INDEX 01 00:00:00
FILE "05 - Tally Rand.wav" WAVE
TRACK 05 AUDIO
TITLE "Tally Rand"
PERFORMER "Donny Hathaway"
INDEX 01 00:00:00
FILE "06 - Memory of Our Love.wav" WAVE
TRACK 06 AUDIO
TITLE "Memory of Our Love"
PERFORMER "Donny Hathaway"
INDEX 01 00:00:00
FILE "07 - Sunshine and Showers.wav" WAVE
TRACK 07 AUDIO
TITLE "Sunshine and Showers"
PERFORMER "Donny Hathaway"
INDEX 01 00:00:00
FILE "08 - After the Dance is Done.wav" WAVE
TRACK 08 AUDIO
TITLE "After the Dance is Done"
PERFORMER "Donny Hathaway"
INDEX 01 00:00:00
FILE "09 - Don't Turn Away.wav" WAVE
TRACK 09 AUDIO
TITLE "Don't Turn Away"
PERFORMER "Donny Hathaway"
INDEX 01 00:00:00
FILE "10 - Always the Same.wav" WAVE
TRACK 10 AUDIO
TITLE "Always the Same"
PERFORMER "Donny Hathaway"
INDEX 01 00:00:00
FILE "11 - Brown Eyed Lady.wav" WAVE
TRACK 11 AUDIO
TITLE "Brown Eyed Lady"
PERFORMER "Donny Hathaway"
INDEX 01 00:00:00
FILE "12 - The Sands of Time.wav" WAVE
TRACK 12 AUDIO
TITLE "The Sands of Time"
PERFORMER "Donny Hathaway"
INDEX 01 00:00:00
FILE "13 - Zyzygy Concerto.wav" WAVE
TRACK 13 AUDIO
TITLE "Zyzygy Concerto"
PERFORMER "Donny Hathaway"
INDEX 01 00:00:00
 
Лог проверки качества
AUDIOCHECKER v2.0 beta (build 457) - by Dester - opdester@freemail.hu
Path: ...\CD2
01 -=- 01 - Never My Love.flac -=- CDDA (100%)
02 -=- 02 - A Lot of Soul.flac -=- CDDA (100%)
03 -=- 03 - Let's Groove.flac -=- CDDA (100%)
04 -=- 04 - Latin Time.flac -=- CDDA (100%)
05 -=- 05 - Tally Rand.flac -=- CDDA (100%)
06 -=- 06 - Memory of Our Love.flac -=- CDDA (100%)
07 -=- 07 - Sunshine and Showers.flac -=- CDDA (100%)
08 -=- 08 - After the Dance is Done.flac -=- CDDA (100%)
09 -=- 09 - Don't Turn Away.flac -=- CDDA (100%)
10 -=- 10 - Always the Same.flac -=- CDDA (100%)
11 -=- 11 - Brown Eyed Lady.flac -=- MPEG (79%)
12 -=- 12 - The Sands of Time.flac -=- MPEG (100%)
13 -=- 13 - Zyzygy Concerto.flac -=- CDDA (100%)
Summary 86,23% CDDA
 
CD3: Live At The Bitter End, 1971 - All Previously Unreleased Performances
Продолжительность: 01:17:28
Треклист:
01. What’s Going On (05:27)
02. Sack Full of Dreams (07:34)
03. Little Ghetto Boy (04:27)
04. You’ve Got a Friend (03:56)
05. Voices Inside (Everything Is Everything) (16:03)
06. He Ain’t Heavy, He’s My Brother (08:41)
07. Jealous Guy (05:18)
08. I Love You More Than You’ll Ever Know (06:03)
09. Hey Girl (05:28)
10. The Ghetto (14:26)
 
Лог создания рипа
Exact Audio Copy V1.0 beta 3 from 29. August 2011
EAC extraction logfile from 31. May 2014, 15:18
Donny Hathaway / Never My Love-The Anthology (Disc 3)
Used drive : PLEXTOR DVDR PX-891SA Adapter: 4 ID: 0
Read mode : Secure
Utilize accurate stream : Yes
Defeat audio cache : Yes
Make use of C2 pointers : No
Read offset correction : 6
Overread into Lead-In and Lead-Out : No
Fill up missing offset samples with silence : Yes
Delete leading and trailing silent blocks : No
Null samples used in CRC calculations : Yes
Used interface : Native Win32 interface for Win NT & 2000
Gap handling : Appended to previous track
Used output format : User Defined Encoder
Selected bitrate : 128 kBit/s
Quality : High
Add ID3 tag : No
Command line compressor : C:\Program Files (x86)\Exact Audio Copy\FLAC\FLAC.EXE
Additional command line options : -8 -V -T "ARTIST=%artist%" -T "TITLE=%title%" -T "ALBUM=%albumtitle%" -T "DATE=%year%" -T "TRACKNUMBER=%tracknr%" -T "TOTALTRACKS=%numtracks%" -T "GENRE=%genre%" -T "ALBUMARTIST=%albumartist%" -T "ALBUM ARTIST=%albumartist%" -T "COMMENT=EAC Secure Mode, Test & Copy, AccurateRip, FLAC -8" %source%
TOC of the extracted CD
Track | Start | Length | Start sector | End sector
---------------------------------------------------------
1 | 0:00.00 | 5:27.38 | 0 | 24562
2 | 5:27.38 | 7:34.46 | 24563 | 58658
3 | 13:02.09 | 4:27.47 | 58659 | 78730
4 | 17:29.56 | 3:56.49 | 78731 | 96479
5 | 21:26.30 | 16:03.34 | 96480 | 168738
6 | 37:29.64 | 8:41.21 | 168739 | 207834
7 | 46:11.10 | 5:18.44 | 207835 | 231728
8 | 51:29.54 | 6:03.21 | 231729 | 258974
9 | 57:33.00 | 5:28.45 | 258975 | 283619
10 | 63:01.45 | 14:26.52 | 283620 | 348621
Track 1
Filename L:\flac rips\01 - What's Going On.wav
Pre-gap length 0:00:02.00
Peak level 85.9 %
Extraction speed 6.2 X
Track quality 100.0 %
Test CRC 8D087CBB
Copy CRC 8D087CBB
Accurately ripped (confidence 14) [8A6ED4B7] (AR v2)
Copy OK
Track 2
Filename L:\flac rips\02 - Sack Full of Dreams.wav
Peak level 85.9 %
Extraction speed 7.3 X
Track quality 100.0 %
Test CRC 0D7168B2
Copy CRC 0D7168B2
Accurately ripped (confidence 14) [6D434B17] (AR v2)
Copy OK
Track 3
Filename L:\flac rips\03 - Little Ghetto Boy.wav
Peak level 85.9 %
Extraction speed 7.6 X
Track quality 100.0 %
Test CRC 4D97385A
Copy CRC 4D97385A
Accurately ripped (confidence 14) [C2B2DDC8] (AR v2)
Copy OK
Track 4
Filename L:\flac rips\04 - You've Got a Friend.wav
Peak level 85.9 %
Extraction speed 7.9 X
Track quality 100.0 %
Test CRC 919DAA25
Copy CRC 919DAA25
Accurately ripped (confidence 14) [70BD0FC7] (AR v2)
Copy OK
Track 5
Filename L:\flac rips\05 - Voices Inside (Everything is Everything).wav
Peak level 85.9 %
Extraction speed 9.3 X
Track quality 99.9 %
Test CRC 7C1A0875
Copy CRC 7C1A0875
Accurately ripped (confidence 14) [71AB9817] (AR v2)
Copy OK
Track 6
Filename L:\flac rips\06 - He Ain't Heavy, He's My Brother.wav
Peak level 85.9 %
Extraction speed 10.6 X
Track quality 100.0 %
Test CRC C2694BD0
Copy CRC C2694BD0
Accurately ripped (confidence 14) [98A4C730] (AR v2)
Copy OK
Track 7
Filename L:\flac rips\07 - Jealous Guy.wav
Peak level 85.9 %
Extraction speed 10.8 X
Track quality 100.0 %
Test CRC 96A600A8
Copy CRC 96A600A8
Accurately ripped (confidence 14) [309D1BF7] (AR v2)
Copy OK
Track 8
Filename L:\flac rips\08 - I Love You More Than You'll Ever Know.wav
Peak level 85.9 %
Extraction speed 11.3 X
Track quality 100.0 %
Test CRC C01E2B13
Copy CRC C01E2B13
Accurately ripped (confidence 14) [52C7269B] (AR v2)
Copy OK
Track 9
Filename L:\flac rips\09 - Hey Girl.wav
Peak level 85.9 %
Extraction speed 11.6 X
Track quality 100.0 %
Test CRC 9DC8B3EF
Copy CRC 9DC8B3EF
Accurately ripped (confidence 14) [46780B95] (AR v2)
Copy OK
Track 10
Filename L:\flac rips\10 - The Ghetto.wav
Peak level 85.9 %
Extraction speed 13.1 X
Track quality 100.0 %
Test CRC A9CAEB3D
Copy CRC A9CAEB3D
Accurately ripped (confidence 14) [C7A7F8C0] (AR v2)
Copy OK
All tracks accurately ripped
No errors occurred
End of status report
==== Log checksum 1DB18DB805002BF5508A0CC8F1319F86F1A480ADC12FC6F8FEFDB30E5C03192B ====
 
Содержание индексной карты (.CUE)
REM GENRE R&B
REM DATE 2013
REM DISCID 8D12280A
REM COMMENT "ExactAudioCopy v1.0b3"
PERFORMER "Donny Hathaway"
TITLE "Never My Love-The Anthology (Disc 3)"
FILE "01 - What's Going On.wav" WAVE
TRACK 01 AUDIO
TITLE "What's Going On"
PERFORMER "Donny Hathaway"
INDEX 01 00:00:00
FILE "02 - Sack Full of Dreams.wav" WAVE
TRACK 02 AUDIO
TITLE "Sack Full of Dreams"
PERFORMER "Donny Hathaway"
INDEX 01 00:00:00
FILE "03 - Little Ghetto Boy.wav" WAVE
TRACK 03 AUDIO
TITLE "Little Ghetto Boy"
PERFORMER "Donny Hathaway"
INDEX 01 00:00:00
FILE "04 - You've Got a Friend.wav" WAVE
TRACK 04 AUDIO
TITLE "You've Got a Friend"
PERFORMER "Donny Hathaway"
INDEX 01 00:00:00
FILE "05 - Voices Inside (Everything is Everything).wav" WAVE
TRACK 05 AUDIO
TITLE "Voices Inside (Everything is Everything)"
PERFORMER "Donny Hathaway"
INDEX 01 00:00:00
FILE "06 - He Ain't Heavy, He's My Brother.wav" WAVE
TRACK 06 AUDIO
TITLE "He Ain't Heavy, He's My Brother"
PERFORMER "Donny Hathaway"
INDEX 01 00:00:00
FILE "07 - Jealous Guy.wav" WAVE
TRACK 07 AUDIO
TITLE "Jealous Guy"
PERFORMER "Donny Hathaway"
INDEX 01 00:00:00
FILE "08 - I Love You More Than You'll Ever Know.wav" WAVE
TRACK 08 AUDIO
TITLE "I Love You More Than You'll Ever Know"
PERFORMER "Donny Hathaway"
INDEX 01 00:00:00
FILE "09 - Hey Girl.wav" WAVE
TRACK 09 AUDIO
TITLE "Hey Girl"
PERFORMER "Donny Hathaway"
INDEX 01 00:00:00
FILE "10 - The Ghetto.wav" WAVE
TRACK 10 AUDIO
TITLE "The Ghetto"
PERFORMER "Donny Hathaway"
INDEX 01 00:00:00
 
Лог проверки качества
AUDIOCHECKER v2.0 beta (build 457) - by Dester - opdester@freemail.hu
Path: ...\CD3
01 -=- 01 - What's Going On.flac -=- CDDA (100%)
02 -=- 02 - Sack Full of Dreams.flac -=- CDDA (100%)
03 -=- 03 - Little Ghetto Boy.flac -=- CDDA (100%)
04 -=- 04 - You've Got a Friend.flac -=- CDDA (100%)
05 -=- 05 - Voices Inside (Everything is Everything).flac -=- CDDA (100%)
06 -=- 06 - He Ain't Heavy, He's My Brother.flac -=- CDDA (100%)
07 -=- 07 - Jealous Guy.flac -=- CDDA (100%)
08 -=- 08 - I Love You More Than You'll Ever Know.flac -=- CDDA (100%)
09 -=- 09 - Hey Girl.flac -=- CDDA (100%)
10 -=- 10 - The Ghetto.flac -=- CDDA (100%)
Summary 100,00% CDDA
 
CD4: Roberta Flack & Donny Hathaway Duets
Продолжительность:
Треклист:
01. I (Who Have Nothing) (05:04)
02. You’ve Got a Friend (03:25)
03. Baby I Love You (03:25)
04. Be Real Black for Me (03:33)
05. You’ve Lost That Lovin’ Feelin’ (06:38)
06. For All We Know (03:41)
07. Where Is the Love (02:46)
08. When Love Has Grown (03:26)
09. Come Ye Disconsolate (04:52)
10. Mood (07:04)
11. The Closer I Get to You (04:40)
12. You Are My Heaven (Featuring Donny Hathaway) (04:16)
13. Back Together Again (Featuring Donny Hathaway) (09:48)
 
Лог создания рипа
Exact Audio Copy V1.0 beta 3 from 29. August 2011
EAC extraction logfile from 31. May 2014, 15:36
Roberta Flack & Donny Hathaway / Never My Love-The Anthology (Disc 4)
Used drive : PLEXTOR DVDR PX-891SA Adapter: 4 ID: 0
Read mode : Secure
Utilize accurate stream : Yes
Defeat audio cache : Yes
Make use of C2 pointers : No
Read offset correction : 6
Overread into Lead-In and Lead-Out : No
Fill up missing offset samples with silence : Yes
Delete leading and trailing silent blocks : No
Null samples used in CRC calculations : Yes
Used interface : Native Win32 interface for Win NT & 2000
Gap handling : Appended to previous track
Used output format : User Defined Encoder
Selected bitrate : 128 kBit/s
Quality : High
Add ID3 tag : No
Command line compressor : C:\Program Files (x86)\Exact Audio Copy\FLAC\FLAC.EXE
Additional command line options : -8 -V -T "ARTIST=%artist%" -T "TITLE=%title%" -T "ALBUM=%albumtitle%" -T "DATE=%year%" -T "TRACKNUMBER=%tracknr%" -T "TOTALTRACKS=%numtracks%" -T "GENRE=%genre%" -T "ALBUMARTIST=%albumartist%" -T "ALBUM ARTIST=%albumartist%" -T "COMMENT=EAC Secure Mode, Test & Copy, AccurateRip, FLAC -8" %source%
TOC of the extracted CD
Track | Start | Length | Start sector | End sector
---------------------------------------------------------
1 | 0:00.00 | 5:04.21 | 0 | 22820
2 | 5:04.21 | 3:25.54 | 22821 | 38249
3 | 8:30.00 | 3:25.40 | 38250 | 53664
4 | 11:55.40 | 3:33.32 | 53665 | 69671
5 | 15:28.72 | 6:38.12 | 69672 | 99533
6 | 22:07.09 | 3:41.40 | 99534 | 116148
7 | 25:48.49 | 2:46.60 | 116149 | 128658
8 | 28:35.34 | 3:26.49 | 128659 | 144157
9 | 32:02.08 | 4:52.63 | 144158 | 166120
10 | 36:54.71 | 7:04.16 | 166121 | 197936
11 | 43:59.12 | 4:40.63 | 197937 | 218999
12 | 48:40.00 | 4:16.36 | 219000 | 238235
13 | 52:56.36 | 9:48.49 | 238236 | 282384
Track 1
Filename L:\flac rips\01 - I (Who Have Nothing).wav
Pre-gap length 0:00:02.00
Peak level 100.0 %
Extraction speed 6.0 X
Track quality 100.0 %
Test CRC F345FB1C
Copy CRC F345FB1C
Accurately ripped (confidence 14) [63779205] (AR v2)
Copy OK
Track 2
Filename L:\flac rips\02 - You've Got a Friend.wav
Peak level 100.0 %
Extraction speed 6.4 X
Track quality 100.0 %
Test CRC F62E39C8
Copy CRC F62E39C8
Accurately ripped (confidence 14) [8DA8AFE2] (AR v2)
Copy OK
Track 3
Filename L:\flac rips\03 - Baby I Love You.wav
Peak level 92.2 %
Extraction speed 5.5 X
Track quality 99.9 %
Test CRC E33126F6
Copy CRC E33126F6
Accurately ripped (confidence 14) [C9AE6055] (AR v2)
Copy OK
Track 4
Filename L:\flac rips\04 - Be Real Black For Me.wav
Peak level 100.0 %
Extraction speed 5.8 X
Track quality 99.9 %
Test CRC 8A2C92DA
Copy CRC 8A2C92DA
Accurately ripped (confidence 14) [11BE4AE9] (AR v2)
Copy OK
Track 5
Filename L:\flac rips\05 - You've Lost That Loving Feeling.wav
Peak level 100.0 %
Extraction speed 8.4 X
Track quality 100.0 %
Test CRC A744A657
Copy CRC A744A657
Accurately ripped (confidence 14) [B70532CC] (AR v2)
Copy OK
Track 6
Filename L:\flac rips\06 - For All We Know.wav
Peak level 99.6 %
Extraction speed 8.3 X
Track quality 100.0 %
Test CRC 46F2ECAE
Copy CRC 46F2ECAE
Accurately ripped (confidence 14) [17D63ED6] (AR v2)
Copy OK
Track 7
Filename L:\flac rips\07 - Where is the Love.wav
Peak level 100.0 %
Extraction speed 8.3 X
Track quality 100.0 %
Test CRC 6848EB0D
Copy CRC 6848EB0D
Accurately ripped (confidence 14) [EF00A271] (AR v2)
Copy OK
Track 8
Filename L:\flac rips\08 - When Love Has Grown.wav
Peak level 100.0 %
Extraction speed 8.9 X
Track quality 100.0 %
Test CRC B38DE249
Copy CRC B38DE249
Accurately ripped (confidence 14) [BD3D09C0] (AR v2)
Copy OK
Track 9
Filename L:\flac rips\09 - Come Ye Disconsolate.wav
Peak level 100.0 %
Extraction speed 9.6 X
Track quality 100.0 %
Test CRC 0569A86F
Copy CRC 0569A86F
Accurately ripped (confidence 14) [86598297] (AR v2)
Copy OK
Track 10
Filename L:\flac rips\10 - Mood.wav
Peak level 83.5 %
Extraction speed 10.6 X
Track quality 100.0 %
Test CRC 9E50117E
Copy CRC 9E50117E
Accurately ripped (confidence 14) [4AE8B104] (AR v2)
Copy OK
Track 11
Filename L:\flac rips\11 - The Closer I Get To You.wav
Peak level 81.7 %
Extraction speed 8.8 X
Track quality 99.9 %
Test CRC 83D442A0
Copy CRC 83D442A0
Accurately ripped (confidence 14) [C9245784] (AR v2)
Copy OK
Track 12
Filename L:\flac rips\12 - You Are My Heaven.wav
Peak level 89.2 %
Extraction speed 10.9 X
Track quality 100.0 %
Test CRC C3889AB7
Copy CRC C3889AB7
Accurately ripped (confidence 14) [990B8C9D] (AR v2)
Copy OK
Track 13
Filename L:\flac rips\13 - Back Together Again.wav
Peak level 92.8 %
Extraction speed 11.0 X
Track quality 99.9 %
Test CRC 9490ADD6
Copy CRC 9490ADD6
Accurately ripped (confidence 14) [71C22ECD] (AR v2)
Copy OK
All tracks accurately ripped
No errors occurred
End of status report
==== Log checksum B74A0F051E7BBC7769448DFD9AC1053984650D94C813254A19DE0BC1300E2FC0 ====
 
Содержание индексной карты (.CUE)
REM GENRE R&B
REM DATE 2013
REM DISCID A20EB50D
REM COMMENT "ExactAudioCopy v1.0b3"
PERFORMER "Roberta Flack & Donny Hathaway"
TITLE "Never My Love-The Anthology (Disc 4)"
FILE "01 - I (Who Have Nothing).wav" WAVE
TRACK 01 AUDIO
TITLE "I (Who Have Nothing)"
PERFORMER "Roberta Flack & Donny Hathaway"
INDEX 01 00:00:00
FILE "02 - You've Got a Friend.wav" WAVE
TRACK 02 AUDIO
TITLE "You've Got a Friend"
PERFORMER "Roberta Flack & Donny Hathaway"
INDEX 01 00:00:00
FILE "03 - Baby I Love You.wav" WAVE
TRACK 03 AUDIO
TITLE "Baby I Love You"
PERFORMER "Roberta Flack & Donny Hathaway"
INDEX 01 00:00:00
FILE "04 - Be Real Black For Me.wav" WAVE
TRACK 04 AUDIO
TITLE "Be Real Black For Me"
PERFORMER "Roberta Flack & Donny Hathaway"
INDEX 01 00:00:00
FILE "05 - You've Lost That Loving Feeling.wav" WAVE
TRACK 05 AUDIO
TITLE "You've Lost That Loving Feeling"
PERFORMER "Roberta Flack & Donny Hathaway"
INDEX 01 00:00:00
FILE "06 - For All We Know.wav" WAVE
TRACK 06 AUDIO
TITLE "For All We Know"
PERFORMER "Roberta Flack & Donny Hathaway"
INDEX 01 00:00:00
FILE "07 - Where is the Love.wav" WAVE
TRACK 07 AUDIO
TITLE "Where is the Love"
PERFORMER "Roberta Flack & Donny Hathaway"
INDEX 01 00:00:00
FILE "08 - When Love Has Grown.wav" WAVE
TRACK 08 AUDIO
TITLE "When Love Has Grown"
PERFORMER "Roberta Flack & Donny Hathaway"
INDEX 01 00:00:00
FILE "09 - Come Ye Disconsolate.wav" WAVE
TRACK 09 AUDIO
TITLE "Come Ye Disconsolate"
PERFORMER "Roberta Flack & Donny Hathaway"
INDEX 01 00:00:00
FILE "10 - Mood.wav" WAVE
TRACK 10 AUDIO
TITLE "Mood"
PERFORMER "Roberta Flack & Donny Hathaway"
INDEX 01 00:00:00
FILE "11 - The Closer I Get To You.wav" WAVE
TRACK 11 AUDIO
TITLE "The Closer I Get To You"
PERFORMER "Roberta Flack & Donny Hathaway"
INDEX 01 00:00:00
FILE "12 - You Are My Heaven.wav" WAVE
TRACK 12 AUDIO
TITLE "You Are My Heaven"
PERFORMER "Roberta Flack & Donny Hathaway"
INDEX 01 00:00:00
FILE "13 - Back Together Again.wav" WAVE
TRACK 13 AUDIO
TITLE "Back Together Again"
PERFORMER "Roberta Flack & Donny Hathaway"
INDEX 01 00:00:00
 
Лог проверки качества
AUDIOCHECKER v2.0 beta (build 457) - by Dester - opdester@freemail.hu
Path: ...\CD4
01 -=- 01 - I (Who Have Nothing).flac -=- CDDA (100%)
02 -=- 02 - You've Got a Friend.flac -=- CDDA (100%)
03 -=- 03 - Baby I Love You.flac -=- CDDA (100%)
04 -=- 04 - Be Real Black For Me.flac -=- CDDA (100%)
05 -=- 05 - You've Lost That Loving Feeling.flac -=- CDDA (100%)
06 -=- 06 - For All We Know.flac -=- CDDA (100%)
07 -=- 07 - Where is the Love.flac -=- CDDA (100%)
08 -=- 08 - When Love Has Grown.flac -=- CDDA (100%)
09 -=- 09 - Come Ye Disconsolate.flac -=- CDDA (100%)
10 -=- 10 - Mood.flac -=- CDDA (100%)
11 -=- 11 - The Closer I Get To You.flac -=- CDDA (100%)
12 -=- 12 - You Are My Heaven.flac -=- CDDA (100%)
13 -=- 13 - Back Together Again.flac -=- CDDA (100%)
Summary 100,00% CDDA
Доп. информация: Антология.
 
Об исполнителе (группе)
 
Об альбоме (сборнике)
https://www.discogs.com/Donny-Hathaway-Never-My-Love-The-Anthology/release/5207917
Companies
Phonographic Copyright (p) – Rhino Entertainment Company
Copyright (c) – Rhino Entertainment Company
Marketed By – Rhino Entertainment Company
Credits
Art Direction, Design – Lisa Glines
Compilation Producer [Produced For Release By] – Mason Williams (2), Steve Woolard
Liner Notes – Charles Waring
Mixed By [Unreleased Material Mixed By] – Brian Kehew
Remastered By [Remastering] – Charles Benson
Research [Tape Research] – Bill Inglot
Notes
Sticker on cover:
Donny Hathaway: Never My Love
Four-Disc Anthology Featuring Hathaway's Essential Solo Tracks And Duets With Roberta Flack
Along With Two Full Discs Of Previously Unreleased Studio And Live Recordings
2-1 and 2-6 were released on a limited edition 7" for Record Store Day 2013
Barcode: 081227965433
Приватный:
Нет (DHT включён)
Размер:
1.62 Гб (1,736,789,434 байт) » файлов: 95
Участники:
0 раздают, 0 качают (0 участников всего)
Внешние участники:
5 раздают, 2 качают (7 участников всего) [ Обновить ]
No seeders - write personal message to user M0p94ok. Нет сидеров - пишите личное сообщение пользователю M0p94ok.
10:43
66
Нет комментариев. Ваш будет первым!