Поиск

(soul) Philip Bailey - Family Affair - 1989 - 1989, FLAC (tracks+.cue), lossless

Треклист:
Philip Bailey - Family Affair - 1989
Жанр: soul
Год выпуска диска: 1989
Производитель диска: Word / Epic (USA)
Аудио кодек: FLAC
Тип рипа: tracks+.cue
Битрейт аудио: lossless
Продолжительность: 00 : 39 : 33
Трэклист:
1. This Is How the Work Gets Done Listen
2. Family Affair Listen
3. No Compromise Listen
4. Lonely Broken Hearted People Listen
5. Oasis Listen
6. Where Can I Go? Listen
7. Let's Talk About Jesus Listen
8. Love That Lasts Listen
9. Call to War Listen
10. Lord You Reign Listen
Доп. информация: рип сделан с оригинального cd из моей коллекции . не лучший альбом , но для коллекционеров Earth, Wind & Fire пригодится .
 
скрытый текст
Exact Audio Copy V0.99 prebeta 5 from 4. May 2009
Отчёт EAC об извлечении, выполненном 27. марта 2010, 11:37
Philip Bailey / Family Affair
Дисковод: SONY DVD RW DRX-S70U Adapter: 2 ID: 0
Режим чтения : Достоверность
Использование точного потока : Да
Отключение кэша аудио : Да
Использование указателей C2 : Нет
Коррекция смещения при чтении : 48
Способность читать области Lead-in и Lead-out : Нет
Заполнение пропущенных сэмплов тишиной : Да
Удаление блоков с тишиной в начале и конце : Нет
При вычислениях CRC использовались нулевые сэмплы : Да
Интерфейс : Встроенный Win32-интерфейс для Win NT/2000
Обработка зазоров : Добавлено к предыдущему треку
Выходной формат : Пользовательский кодировщик
Выбранный битрейт : 768 kBit/s
Качество : Высокий
Добавление ID3-тэга : Нет
Утилита сжатия : C:\Program Files\Exact Audio Copy\FLAC\FLAC.EXE
Дополнительные параметры : -6 -V -T "ARTIST=%a" -T "TITLE=%t" -T "ALBUM=%g" -T "DATE=%y" -T "TRACKNUMBER=%n" -T "GENRE=%m" -T "COMMENT=%e" %s -o %d
TOC извлечённого CD
Трек | Старт | Длительность | Начальный сектор | Конечный сектор
---------------------------------------------------------------------
1 | 0:00.00 | 4:05.20 | 0 | 18394
2 | 4:05.20 | 4:45.00 | 18395 | 39769
3 | 8:50.20 | 3:40.25 | 39770 | 56294
4 | 12:30.45 | 4:11.05 | 56295 | 75124
5 | 16:41.50 | 1:07.35 | 75125 | 80184
6 | 17:49.10 | 4:40.12 | 80185 | 101196
7 | 22:29.22 | 3:13.58 | 101197 | 115729
8 | 25:43.05 | 3:47.40 | 115730 | 132794
9 | 29:30.45 | 5:21.02 | 132795 | 156871
10 | 34:51.47 | 4:41.35 | 156872 | 177981
Трек 1
Имя файла d:\My Documents\Philip Bailey 1989\01.Philip Bailey-This Is How The Work Gets Done.wav
Длина предзазора 0:00:02.00
Пиковый уровень 91.9 %
Качество трека 100.0 %
CRC теста 2A41CC31
CRC копии 2A41CC31
Точность не определена (достоверность 1) [936900D6], AccurateRip вернул [ACAB233E]
Копирование... OK
Трек 2
Имя файла d:\My Documents\Philip Bailey 1989\02.Philip Bailey-Family Affair.wav
Длина предзазора 0:00:00.04
Пиковый уровень 100.0 %
Качество трека 100.0 %
CRC теста D2192A6B
CRC копии D2192A6B
Точность не определена (достоверность 1) [F6CC25CA], AccurateRip вернул [A435EBEF]
Копирование... OK
Трек 3
Имя файла d:\My Documents\Philip Bailey 1989\03.Philip Bailey-No Compromise.wav
Пиковый уровень 81.2 %
Качество трека 100.0 %
CRC теста D2F84A2E
CRC копии D2F84A2E
Точность не определена (достоверность 1) [815B7A2C], AccurateRip вернул [D2331D42]
Копирование... OK
Трек 4
Имя файла d:\My Documents\Philip Bailey 1989\04.Philip Bailey-Lonely Broken Hearted People.wav
Длина предзазора 0:00:00.04
Пиковый уровень 96.7 %
Качество трека 100.0 %
CRC теста 704B8A22
CRC копии 704B8A22
Точность не определена (достоверность 1) [7074A028], AccurateRip вернул [183C3004]
Копирование... OK
Трек 5
Имя файла d:\My Documents\Philip Bailey 1989\05.Philip Bailey-Oasis.wav
Пиковый уровень 72.1 %
Качество трека 100.0 %
CRC теста 31916D94
CRC копии 31916D94
Точность не определена (достоверность 1) [9FAA046B], AccurateRip вернул [DA4B226A]
Копирование... OK
Трек 6
Имя файла d:\My Documents\Philip Bailey 1989\06.Philip Bailey-Where Can I Go.wav
Длина предзазора 0:00:00.73
Пиковый уровень 86.0 %
Качество трека 100.0 %
CRC теста 94E5F772
CRC копии 94E5F772
Точность не определена (достоверность 1) [3EBE4102], AccurateRip вернул [93656E4E]
Копирование... OK
Трек 7
Имя файла d:\My Documents\Philip Bailey 1989\07.Philip Bailey-Let's Talk About Jesus.wav
Пиковый уровень 100.0 %
Качество трека 100.0 %
CRC теста 4AC3F1A9
CRC копии 4AC3F1A9
Точность не определена (достоверность 1) [9F00DF74], AccurateRip вернул [578B2CF2]
Копирование... OK
Трек 8
Имя файла d:\My Documents\Philip Bailey 1989\08.Philip Bailey-Love That Lasts.wav
Длина предзазора 0:00:01.04
Пиковый уровень 78.7 %
Качество трека 100.0 %
CRC теста ADD9DD89
CRC копии ADD9DD89
Точность не определена (достоверность 1) [DC345622], AccurateRip вернул [6E49A7EA]
Копирование... OK
Трек 9
Имя файла d:\My Documents\Philip Bailey 1989\09.Philip Bailey-Call To War.wav
Длина предзазора 0:00:00.13
Пиковый уровень 97.9 %
Качество трека 100.0 %
CRC теста 422E200F
CRC копии 422E200F
Точность не определена (достоверность 1) [B81E0F1A], AccurateRip вернул [40938698]
Копирование... OK
Трек 10
Имя файла d:\My Documents\Philip Bailey 1989\10.Philip Bailey-Lord You Reign.wav
Длина предзазора 0:00:00.89
Пиковый уровень 66.8 %
Качество трека 100.0 %
CRC теста 6FD3987C
CRC копии 6FD3987C
Точность не определена (достоверность 1) [FA3C295B], AccurateRip вернул [235FDFC3]
Копирование... OK
Ни один трек не прошёл проверки на точность
В вашей базе может быть иной вариант штамповки диска
Ошибок не произошло
Конец отчёта
 
скрытый текст
AUDIOCHECKER v2.0 beta (build 457) - by Dester - opdester@freemail.hu
~~~~~~~~~~~~~~~~~~~~~~~~~~~~~~~~~~
-=== DO NOT EDIT THIS FILE! ===-
Путь: ...\Philip Bailey 1989
01 -=- 01.Philip Bailey-This Is How The Work Gets Done.flac -=- CDDA (100%)
02 -=- 02.Philip Bailey-Family Affair.flac -=- CDDA (100%)
03 -=- 03.Philip Bailey-No Compromise.flac -=- CDDA (100%)
04 -=- 04.Philip Bailey-Lonely Broken Hearted People.flac -=- CDDA (100%)
05 -=- 05.Philip Bailey-Oasis.flac -=- CDDA (100%)
06 -=- 06.Philip Bailey-Where Can I Go.flac -=- CDDA (100%)
07 -=- 07.Philip Bailey-Let's Talk About Jesus.flac -=- CDDA (100%)
08 -=- 08.Philip Bailey-Love That Lasts.flac -=- CDDA (99%)
09 -=- 09.Philip Bailey-Call To War.flac -=- CDDA (100%)
10 -=- 10.Philip Bailey-Lord You Reign.flac -=- CDDA (100%)
Сводка 99,90% CDDA
44090404
 
скрытый текст
REM GENRE Soul
REM DATE 1989
REM DISCID 6C09450A
REM COMMENT "ExactAudioCopy v0.99pb5"
PERFORMER "Philip Bailey"
TITLE "Family Affair"
FILE "01.Philip Bailey-This Is How The Work Gets Done.wav" WAVE
TRACK 01 AUDIO
TITLE "This Is How The Work Gets Done"
PERFORMER "Philip Bailey"
INDEX 01 00:00:00
TRACK 02 AUDIO
TITLE "Family Affair"
PERFORMER "Philip Bailey"
INDEX 00 04:05:17
FILE "02.Philip Bailey-Family Affair.wav" WAVE
INDEX 01 00:00:00
FILE "03.Philip Bailey-No Compromise.wav" WAVE
TRACK 03 AUDIO
TITLE "No Compromise"
PERFORMER "Philip Bailey"
INDEX 01 00:00:00
TRACK 04 AUDIO
TITLE "Lonely Broken Hearted People"
PERFORMER "Philip Bailey"
INDEX 00 03:40:22
FILE "04.Philip Bailey-Lonely Broken Hearted People.wav" WAVE
INDEX 01 00:00:00
FILE "05.Philip Bailey-Oasis.wav" WAVE
TRACK 05 AUDIO
TITLE "Oasis"
PERFORMER "Philip Bailey"
INDEX 01 00:00:00
TRACK 06 AUDIO
TITLE "Where Can I Go"
PERFORMER "Philip Bailey"
INDEX 00 01:06:55
FILE "06.Philip Bailey-Where Can I Go.wav" WAVE
INDEX 01 00:00:00
FILE "07.Philip Bailey-Let's Talk About Jesus.wav" WAVE
TRACK 07 AUDIO
TITLE "Let's Talk About Jesus"
PERFORMER "Philip Bailey"
INDEX 01 00:00:00
TRACK 08 AUDIO
TITLE "Love That Lasts"
PERFORMER "Philip Bailey"
INDEX 00 03:12:55
FILE "08.Philip Bailey-Love That Lasts.wav" WAVE
INDEX 01 00:00:00
TRACK 09 AUDIO
TITLE "Call To War"
PERFORMER "Philip Bailey"
INDEX 00 03:47:30
FILE "09.Philip Bailey-Call To War.wav" WAVE
INDEX 01 00:00:00
TRACK 10 AUDIO
TITLE "Lord You Reign"
PERFORMER "Philip Bailey"
INDEX 00 05:20:10
FILE "10.Philip Bailey-Lord You Reign.wav" WAVE
INDEX 01 00:00:00
Приватный:
Нет (DHT включён)
Размер:
243.97 Мб (255,826,071 байт) » файлов: 14
Участники:
0 раздают, 0 качают (0 участников всего)
Внешние участники:
1 раздают, 0 качают (1 участников всего) [ Обновить ]
Никого нет на раздаче - пишите личное сообщение M0p94ok
No seeders - write personal message to M0p94ok
03:49
14
Нет комментариев. Ваш будет первым!