Поиск

(soul) Phil Perry - The Heart Of The Man 1991 - 1991, FLAC (tracks+.cue), lossless

Треклист:
Phil Perry - The Heart Of The Man 1991
Жанр: soul
Год выпуска диска: 1991
Производитель диска: Capitol (USA)
Аудио кодек: FLAC
Тип рипа: tracks+.cue
Битрейт аудио: lossless
Продолжительность: 00 : 54 : 04
Трэклист:
1. Amazing Love
2. Say Anything
3. Forever
4. Woman
5. Who Do You Love - (bonus track)
6. More Nights
7. Call Me
8. Arms of Love, (Forever in the)
9. Best of Me, The
10. God's Gift to the World
11. Good-Bye
Доп. информация: рип сделан с оригинального cd из моей коллекции . Этого дядьку думаю рекламировать не надо . Для тех кто в теме...
 
скрытый текст
Exact Audio Copy V0.99 prebeta 5 from 4. May 2009
Отчёт EAC об извлечении, выполненном 27. марта 2010, 13:16
Phil Perry / The Heart Of The Man
Дисковод: SONY DVD RW DRX-S70U Adapter: 2 ID: 0
Режим чтения : Достоверность
Использование точного потока : Да
Отключение кэша аудио : Да
Использование указателей C2 : Нет
Коррекция смещения при чтении : 48
Способность читать области Lead-in и Lead-out : Нет
Заполнение пропущенных сэмплов тишиной : Да
Удаление блоков с тишиной в начале и конце : Нет
При вычислениях CRC использовались нулевые сэмплы : Да
Интерфейс : Встроенный Win32-интерфейс для Win NT/2000
Обработка зазоров : Добавлено к предыдущему треку
Выходной формат : Пользовательский кодировщик
Выбранный битрейт : 768 kBit/s
Качество : Высокий
Добавление ID3-тэга : Нет
Утилита сжатия : C:\Program Files\Exact Audio Copy\FLAC\FLAC.EXE
Дополнительные параметры : -6 -V -T "ARTIST=%a" -T "TITLE=%t" -T "ALBUM=%g" -T "DATE=%y" -T "TRACKNUMBER=%n" -T "GENRE=%m" -T "COMMENT=%e" %s -o %d
TOC извлечённого CD
Трек | Старт | Длительность | Начальный сектор | Конечный сектор
---------------------------------------------------------------------
1 | 0:00.00 | 4:28.15 | 0 | 20114
2 | 4:28.15 | 5:26.40 | 20115 | 44604
3 | 9:54.55 | 4:58.50 | 44605 | 67004
4 | 14:53.30 | 5:33.55 | 67005 | 92034
5 | 20:27.10 | 4:25.15 | 92035 | 111924
6 | 24:52.25 | 4:53.47 | 111925 | 133946
7 | 29:45.72 | 4:39.20 | 133947 | 154891
8 | 34:25.17 | 5:35.50 | 154892 | 180066
9 | 40:00.67 | 4:49.45 | 180067 | 201786
10 | 44:50.37 | 5:21.48 | 201787 | 225909
11 | 50:12.10 | 3:52.47 | 225910 | 243356
Трек 1
Имя файла d:\My Documents\Phil Perry 1991\01.Phil Perry-Amazing Love.wav
Длина предзазора 0:00:02.00
Пиковый уровень 96.1 %
Качество трека 100.0 %
CRC теста 23FA2ADF
CRC копии 23FA2ADF
Точность не определена (достоверность 4) [F40FA4F6], AccurateRip вернул [AB3BB0FE]
Копирование... OK
Трек 2
Имя файла d:\My Documents\Phil Perry 1991\02.Phil Perry-Say Anything.wav
Длина предзазора 0:00:00.04
Пиковый уровень 99.8 %
Качество трека 100.0 %
CRC теста 4635B42A
CRC копии 4635B42A
Точность не определена (достоверность 4) [129BA7B4], AccurateRip вернул [059C0AD3]
Копирование... OK
Трек 3
Имя файла d:\My Documents\Phil Perry 1991\03.Phil Perry-Forever.wav
Длина предзазора 0:00:00.20
Пиковый уровень 95.9 %
Качество трека 100.0 %
CRC теста 5A8052E4
CRC копии 5A8052E4
Точность не определена (достоверность 4) [B02B3566], AccurateRip вернул [7D671F52]
Копирование... OK
Трек 4
Имя файла d:\My Documents\Phil Perry 1991\04.Phil Perry-Woman.wav
Длина предзазора 0:00:00.70
Пиковый уровень 95.1 %
Качество трека 99.9 %
CRC теста 2788A6B6
CRC копии 2788A6B6
Точность не определена (достоверность 4) [4C1C2156], AccurateRip вернул [ED78164E]
Копирование... OK
Трек 5
Имя файла d:\My Documents\Phil Perry 1991\05.Phil Perry-Who Do You Love.wav
Длина предзазора 0:00:00.04
Пиковый уровень 95.8 %
Качество трека 100.0 %
CRC теста F0E69D7A
CRC копии F0E69D7A
Точность не определена (достоверность 4) [B4118B8A], AccurateRip вернул [43416CFA]
Копирование... OK
Трек 6
Имя файла d:\My Documents\Phil Perry 1991\06.Phil Perry-More Nights.wav
Длина предзазора 0:00:00.04
Пиковый уровень 97.4 %
Качество трека 100.0 %
CRC теста 091548FF
CRC копии 091548FF
Точность не определена (достоверность 4) [64DC2BCE], AccurateRip вернул [CB5001AE]
Копирование... OK
Трек 7
Имя файла d:\My Documents\Phil Perry 1991\07.Phil Perry-Call Me.wav
Длина предзазора 0:00:01.02
Пиковый уровень 100.0 %
Качество трека 99.9 %
CRC теста 6EFE21C1
CRC копии 6EFE21C1
Точность не определена (достоверность 4) [0F9C7787], AccurateRip вернул [69FEE9B3]
Копирование... OK
Трек 8
Имя файла d:\My Documents\Phil Perry 1991\08.Phil Perry-(Forever in the) Arms of Love.wav
Длина предзазора 0:00:00.33
Пиковый уровень 96.7 %
Качество трека 100.0 %
CRC теста D5792563
CRC копии D5792563
Точность не определена (достоверность 4) [28DFD96C], AccurateRip вернул [AF1C8CAC]
Копирование... OK
Трек 9
Имя файла d:\My Documents\Phil Perry 1991\09.Phil Perry-The Best of Me.wav
Длина предзазора 0:00:00.02
Пиковый уровень 95.2 %
Качество трека 100.0 %
CRC теста 810267D3
CRC копии 810267D3
Точность не определена (достоверность 4) [C8B0D6A3], AccurateRip вернул [9FFF7CF7]
Копирование... OK
Трек 10
Имя файла d:\My Documents\Phil Perry 1991\10.Phil Perry-God's Gift to the World.wav
Длина предзазора 0:00:00.26
Пиковый уровень 96.5 %
Качество трека 100.0 %
CRC теста A9D0912E
CRC копии A9D0912E
Точность не определена (достоверность 4) [B36666AE], AccurateRip вернул [AD01BADA]
Копирование... OK
Трек 11
Имя файла d:\My Documents\Phil Perry 1991\11.Phil Perry-Good-Bye.wav
Длина предзазора 0:00:00.13
Пиковый уровень 96.8 %
Качество трека 100.0 %
CRC теста 8FB6693D
CRC копии 8FB6693D
Точность не определена (достоверность 4) [ACCAE091], AccurateRip вернул [2E6439F5]
Копирование... OK
Ни один трек не прошёл проверки на точность
В вашей базе может быть иной вариант штамповки диска
Ошибок не произошло
Конец отчёта
 
скрытый текст
AUDIOCHECKER v2.0 beta (build 457) - by Dester - opdester@freemail.hu
~~~~~~~~~~~~~~~~~~~~~~~~~~~~~~~~~~
-=== DO NOT EDIT THIS FILE! ===-
Путь: ...\Phil Perry 1991
01 -=- 01.Phil Perry-Amazing Love.flac -=- CDDA (100%)
02 -=- 02.Phil Perry-Say Anything.flac -=- CDDA (100%)
03 -=- 03.Phil Perry-Forever.flac -=- CDDA (99%)
04 -=- 04.Phil Perry-Woman.flac -=- CDDA (100%)
05 -=- 05.Phil Perry-Who Do You Love.flac -=- CDDA (100%)
06 -=- 06.Phil Perry-More Nights.flac -=- CDDA (100%)
07 -=- 07.Phil Perry-Call Me.flac -=- CDDA (100%)
08 -=- 08.Phil Perry-(Forever in the) Arms of Love.flac -=- CDDA (100%)
09 -=- 09.Phil Perry-The Best of Me.flac -=- CDDA (100%)
10 -=- 10.Phil Perry-God's Gift to the World.flac -=- CDDA (100%)
11 -=- 11.Phil Perry-Good-Bye.flac -=- CDDA (100%)
Сводка 99,91% CDDA
16702228
 
скрытый текст
REM GENRE Jazz
REM DATE 1991
REM DISCID 9E0CAC0B
REM COMMENT "ExactAudioCopy v0.99pb5"
PERFORMER "Phil Perry"
TITLE "The Heart Of The Man"
FILE "01.Phil Perry-Amazing Love.wav" WAVE
TRACK 01 AUDIO
TITLE "Amazing Love"
PERFORMER "Phil Perry"
INDEX 01 00:00:00
TRACK 02 AUDIO
TITLE "Say Anything"
PERFORMER "Phil Perry"
INDEX 00 04:28:12
FILE "02.Phil Perry-Say Anything.wav" WAVE
INDEX 01 00:00:00
TRACK 03 AUDIO
TITLE "Forever"
PERFORMER "Phil Perry"
INDEX 00 05:26:25
FILE "03.Phil Perry-Forever.wav" WAVE
INDEX 01 00:00:00
TRACK 04 AUDIO
TITLE "Woman"
PERFORMER "Phil Perry"
INDEX 00 04:57:72
FILE "04.Phil Perry-Woman.wav" WAVE
INDEX 01 00:00:00
TRACK 05 AUDIO
TITLE "Who Do You Love"
PERFORMER "Phil Perry"
INDEX 00 05:33:52
FILE "05.Phil Perry-Who Do You Love.wav" WAVE
INDEX 01 00:00:00
TRACK 06 AUDIO
TITLE "More Nights"
PERFORMER "Phil Perry"
INDEX 00 04:25:12
FILE "06.Phil Perry-More Nights.wav" WAVE
INDEX 01 00:00:00
TRACK 07 AUDIO
TITLE "Call Me"
PERFORMER "Phil Perry"
INDEX 00 04:52:45
FILE "07.Phil Perry-Call Me.wav" WAVE
INDEX 01 00:00:00
TRACK 08 AUDIO
TITLE "(Forever in the) Arms of Love"
PERFORMER "Phil Perry"
INDEX 00 04:38:70
FILE "08.Phil Perry-(Forever in the) Arms of Love.wav" WAVE
INDEX 01 00:00:00
TRACK 09 AUDIO
TITLE "The Best of Me"
PERFORMER "Phil Perry"
INDEX 00 05:35:48
FILE "09.Phil Perry-The Best of Me.wav" WAVE
INDEX 01 00:00:00
TRACK 10 AUDIO
TITLE "God's Gift to the World"
PERFORMER "Phil Perry"
INDEX 00 04:49:25
FILE "10.Phil Perry-God's Gift to the World.wav" WAVE
INDEX 01 00:00:00
TRACK 11 AUDIO
TITLE "Good-Bye"
PERFORMER "Phil Perry"
INDEX 00 05:21:38
FILE "11.Phil Perry-Good-Bye.wav" WAVE
INDEX 01 00:00:00
Приватный:
Нет (DHT включён)
Размер:
352.08 Мб (369,187,549 байт) » файлов: 15
Участники:
0 раздают, 0 качают (0 участников всего)
Внешние участники:
3 раздают, 1 качают (4 участников всего) [ Обновить ]
Есть вопросы - пишите личное сообщение пользователю M0p94ok.
03:50
52
Нет комментариев. Ваш будет первым!