Поиск

(Jazz-Funk.Fusion,Drums) John Robinson- Funkshui - 2004, APE (image+.cue), lossless

Треклист:
John Robinson- Funkshui
Жанр: Jazz-Funk.Fusion,Drums
Год выпуска диска: 2004
Производитель диска: JR Production/UK/
Аудио кодек: APE
Тип рипа: image+.cue
Битрейт аудио: lossless
Продолжительность: 01:00:55
[b]Трэклист:
1.Flight
2.Reshuffle
3.Tellin lies
4.Good ole times
5.Sister sadies
6.Cool tv
7.Hair of the dog
8.Sierra
9.Skunkin
10.Lullaby for jack
11.Montebelluna drum solo
Доп. информация: Musiciants:
John Robinson-keyboards,bass,drums,programming vocal and percussion.
Gary Grant-trumpet,Paul Jackson Jr.-guitar,Ross Bolton-guitar & rhodes,Neil Stubenhaus-bass,
Dave Boruff-saxophones,David"Hawk"Wolinski-hammond B3,Mark Williamson-vocal,
Michael Thompson-guitar,Lee Sclar-bass,Chris Robinson-rap vocal,Robbie Wyckoff-bac vocal,
Aaron Zigman-rhodes,Diane lotny-vocal,Dan Higgins-saxophones & rhodes,Hussain Jiffry-bass
Jeff Lorber-rhodes and keyboards,synth bass,Brandon Fields-saxophones,John Beasley-piano,
Dustin Higgins-vocals,Danny Reyes-percussion,Woody Woodruff-engineer.
Достаточно редкий и интересный проект Английского барабанщика и мульти инструменталиста!!!

Рип из личного архива.
 
Отчёт EAC
Exact Audio Copy V0.99 prebeta 4 from 23. January 2008
Отчёт EAC об извлечении, выполненном 24. марта 2010, 23:05
John Robinson / Funkshui
Дисковод: _NEC DVD_RW ND-2510A Adapter: 1 ID: 0
Режим чтения : Достоверность
Использование точного потока : Да
Отключение кэша аудио : Да
Использование указателей C2 : Нет
Коррекция смещения при чтении : 48
Способность читать области Lead-in и Lead-out : Нет
Заполнение пропущенных сэмплов тишиной : Да
Удаление блоков с тишиной в начале и конце : Нет
При вычислениях CRC использовались нулевые сэмплы : Да
Интерфейс : Установленный внешний ASPI-интерфейс
Выходной формат : Внутренние WAV-операции
Формат сэмплов : 44.100 Гц; 16 бит; стерео
TOC извлечённого CD
Трек | Старт | Длительность | Начальный сектор | Конечный сектор
---------------------------------------------------------------------
1 | 0:00.00 | 4:35.00 | 0 | 20624
2 | 4:35.00 | 4:21.38 | 20625 | 40237
3 | 8:56.38 | 5:14.22 | 40238 | 63809
4 | 14:10.60 | 4:14.04 | 63810 | 82863
5 | 18:24.64 | 4:27.20 | 82864 | 102908
6 | 22:52.09 | 4:53.32 | 102909 | 124915
7 | 27:45.41 | 5:59.37 | 124916 | 151877
8 | 33:45.03 | 4:43.45 | 151878 | 173147
9 | 38:28.48 | 5:35.02 | 173148 | 198274
10 | 44:03.50 | 4:09.51 | 198275 | 217000
11 | 48:13.26 | 12:42.50 | 217001 | 274200
Характеристики диапазона извлечения и сообщения об ошибках
Выбранный диапазон
Имя файла E:\ПРОЕКТ\John Robinson-Funkshui 2004\John Robinson - Funkshui.wav
Пиковый уровень 99.8 %
Качество диапазона 99.9 %
CRC теста 8587D0F2
CRC копии 8587D0F2
Копирование... OK
Ошибок не произошло
AccurateRip: сводка
Трек 1 нет в базе данных
Трек 2 нет в базе данных
Трек 3 нет в базе данных
Трек 4 нет в базе данных
Трек 5 нет в базе данных
Трек 6 нет в базе данных
Трек 7 нет в базе данных
Трек 8 нет в базе данных
Трек 9 нет в базе данных
Трек 10 нет в базе данных
Трек 11 нет в базе данных
Ни одного трека нет в базе AccurateRip
Конец отчёта
Приватный:
Нет (DHT включён)
Размер:
419.03 Мб (439,386,780 байт) » файлов: 3
Участники:
0 раздают, 0 качают (0 участников всего)
Внешние участники:
1 раздают, 0 качают (1 участников всего) [ Обновить ]
Никого нет на раздаче - пишите личное сообщение M0p94ok
No seeders - write personal message to M0p94ok
03:50
17
Нет комментариев. Ваш будет первым!