Поиск

(Jazz-Funk) Galactic - Ruckus - 2003, FLAC (image+.cue), lossless

Треклист:
Galactic
Ruckus

Жанр: Jazz-Funk
Страна: USA (New Orleans, Louisiana)
Год выпуска диска: 2003
Производитель диска: United Kingdom (SRG-84643)
Аудио кодек: FLAC
Тип рипа: image+.cue
Битрейт аудио: lossless
Продолжительность: 43 min. 55 sec.
Источник рипа: собственный диск
Трэклист:
01. Bittersweet (3:29)
02. Bongo Joe (3:21)
03. The Moil (3:11)
04. Paint (3:19)
05. Never Called You Crazy (3:08)
06. Gypsy Fade (3:27)
07. Mercamon (3:12)
08. Uptown Odyssey (3:13)
09. Kid Kenner (3:25)
10. The Beast (2:49)
11. Tenderness (3:46)
12. All Behind You Now (3:40)
13. Doomed (3:55)
Доп. информация:
 
Отчёт EAC
Exact Audio Copy V0.99 prebeta 4 from 23. January 2008
Отчёт EAC об извлечении, выполненном 14. декабря 2009, 23:52
Galactic / Ruckus
Дисковод: Optiarc DVD RW AD-7203S Adapter: 3 ID: 0
Режим чтения : Достоверность
Использование точного потока : Да
Отключение кэша аудио : Да
Использование указателей C2 : Нет
Коррекция смещения при чтении : 48
Способность читать области Lead-in и Lead-out : Нет
Заполнение пропущенных сэмплов тишиной : Да
Удаление блоков с тишиной в начале и конце : Нет
При вычислениях CRC использовались нулевые сэмплы : Да
Интерфейс : Установленный внешний ASPI-интерфейс
Выходной формат : Пользовательский кодировщик
Выбранный битрейт : 768 kBit/s
Качество : Высокий
Добавление ID3-тэга : Нет
Утилита сжатия : C:\Program Files\Exact Audio Copy\FLAC\FLAC.EXE
Дополнительные параметры : -6 -V -T "ARTIST=%a" -T "TITLE=%t" -T "ALBUM=%g" -T "DATE=%y" -T "TRACKNUMBER=%n" -T "GENRE=%m" -T "COMMENT=%e" %s -o %d
TOC извлечённого CD
Трек | Старт | Длительность | Начальный сектор | Конечный сектор
---------------------------------------------------------------------
1 | 0:00.00 | 3:28.60 | 0 | 15659
2 | 3:28.60 | 3:21.30 | 15660 | 30764
3 | 6:50.15 | 3:10.70 | 30765 | 45084
4 | 10:01.10 | 3:19.07 | 45085 | 60016
5 | 13:20.17 | 3:07.70 | 60017 | 74111
6 | 16:28.12 | 3:27.28 | 74112 | 89664
7 | 19:55.40 | 3:12.25 | 89665 | 104089
8 | 23:07.65 | 3:13.20 | 104090 | 118584
9 | 26:21.10 | 3:24.47 | 118585 | 133931
10 | 29:45.57 | 2:49.23 | 133932 | 146629
11 | 32:35.05 | 3:45.50 | 146630 | 163554
12 | 36:20.55 | 3:39.67 | 163555 | 180046
13 | 40:00.47 | 3:54.53 | 180047 | 197649
Характеристики диапазона извлечения и сообщения об ошибках
Выбранный диапазон
Имя файла E:\Music\Galactic - 2003 - Ruckus\Galactic - Ruckus.wav
Пиковый уровень 100.0 %
Качество диапазона 100.0 %
CRC копии A56B91F2
Копирование... OK
Ошибок не произошло
Конец отчёта
Приватный:
Нет (DHT включён)
Размер:
273.49 Мб (286,777,046 байт) » файлов: 4
Участники:
0 раздают, 0 качают (0 участников всего)
Внешние участники:
7 раздают, 2 качают (9 участников всего) [ Обновить ]
Никого нет на раздаче - пишите ЛС M0p94ok
No seeders - write PM to M0p94ok
03:51
23
Нет комментариев. Ваш будет первым!