Поиск

(Jazz-Funk) Galactic - Coolin' Off - 1998, FLAC (image+.cue), lossless

Треклист:
Galactic
Coolin' Off

Жанр: Jazz-Funk
Страна: USA (New Orleans, Louisiana)
Год выпуска диска: 1998
Производитель диска: USA (Volcano Records)
Аудио кодек: FLAC
Тип рипа: image+.cue
Битрейт аудио: lossless
Продолжительность: 54 min. 41 sec.
Источник рипа: собственный диск
Трэклист:
01. Go Go (3:02)
02. Welcome To New Orleans (0:15)
03. Something's Wrong With This Picture (5:55)
04. Funky Bird (4:59)
05. Stax Jam (3:10)
06. Church (5:53)
07. On The One (5:31)
08. Mystery Tube (2:23)
09. Doo Rag (6:14)
10. Percussion Interlude (0:46)
11. Everybody Wants Some (Part 1) (4:19)
12. Everybody Wants Some (Part 2) (2:24)
13. Everybody Wants Some (Part 3) (5:25)
14. Goodnight (4:25)
Доп. информация:
 
Отчёт EAC
Exact Audio Copy V0.99 prebeta 5 from 4. May 2009
Отчёт EAC об извлечении, выполненном 28. марта 2010, 16:14
Galactic / Coolin' Off
Дисковод: Optiarc DVD RW AD-7203S Adapter: 3 ID: 0
Режим чтения : Достоверность
Использование точного потока : Да
Отключение кэша аудио : Да
Использование указателей C2 : Нет
Коррекция смещения при чтении : 48
Способность читать области Lead-in и Lead-out : Нет
Заполнение пропущенных сэмплов тишиной : Да
Удаление блоков с тишиной в начале и конце : Нет
При вычислениях CRC использовались нулевые сэмплы : Да
Интерфейс : Встроенный Win32-интерфейс для Win NT/2000
Выходной формат : Пользовательский кодировщик
Выбранный битрейт : 768 kBit/s
Качество : Высокий
Добавление ID3-тэга : Нет
Утилита сжатия : C:\Program Files\Exact Audio Copy\FLAC\FLAC.EXE
Дополнительные параметры : -6 -V -T "ARTIST=%a" -T "TITLE=%t" -T "ALBUM=%g" -T "DATE=%y" -T "TRACKNUMBER=%n" -T "GENRE=%m" -T "COMMENT=%e" %s -o %d
TOC извлечённого CD
Трек | Старт | Длительность | Начальный сектор | Конечный сектор
---------------------------------------------------------------------
1 | 0:00.00 | 3:01.66 | 0 | 13640
2 | 3:01.66 | 0:15.00 | 13641 | 14765
3 | 3:16.66 | 5:54.60 | 14766 | 41375
4 | 9:11.51 | 4:58.73 | 41376 | 63798
5 | 14:10.49 | 3:09.52 | 63799 | 78025
6 | 17:20.26 | 5:53.30 | 78026 | 104530
7 | 23:13.56 | 5:30.63 | 104531 | 129343
8 | 28:44.44 | 2:22.72 | 129344 | 140065
9 | 31:07.41 | 6:14.00 | 140066 | 168115
10 | 37:21.41 | 0:46.30 | 168116 | 171595
11 | 38:07.71 | 4:19.23 | 171596 | 191043
12 | 42:27.19 | 2:23.72 | 191044 | 201840
13 | 44:51.16 | 5:24.60 | 201841 | 226200
14 | 50:16.01 | 4:24.65 | 226201 | 246065
Характеристики диапазона извлечения и сообщения об ошибках
Выбранный диапазон
Имя файла E:\Music\Galactic - 1998 - Coolin' Off\Galactic - Coolin' Off.wav
Пиковый уровень 98.9 %
Качество диапазона 100.0 %
CRC копии 00EA5436
Копирование... OK
Ошибок не произошло
Конец отчёта
Приватный:
Нет (DHT включён)
Размер:
277.11 Мб (290,572,721 байт) » файлов: 4
Участники:
0 раздают, 0 качают (0 участников всего)
Внешние участники:
5 раздают, 1 качают (6 участников всего) [ Обновить ]
Нет сидеров - пишите личное сообщение M0p94ok. Не нравятся торренты? Участники группы Pro-jazz Club могут заказать прямую ссылку на скачивание из облака.
No seeders - write a personal message to M0p94ok. Don't like torrents? Members of Pro-jazz Club group can order a direct download link from the cloud.
03:52
24
Нет комментариев. Ваш будет первым!