Поиск

(soul) Phil Perry - Pure Pleasure (1994) - 1994, FLAC (tracks+.cue), lossless

Треклист:
Phil Perry - Pure Pleasure (1994)
Жанр: soul
Год выпуска диска: 1994
Производитель диска: MCA/GRP (Germany)
Аудио кодек: FLAC
Тип рипа: tracks+.cue
Битрейт аудио: lossless
Продолжительность: 00 : 58 : 20
Трэклист:
1 One Touch 4:50
2 The Way That I Want U 4:52
3 After the Love Has Gone 4:19
4 If Only You Knew 5:13
5 Love It, Love It 4:07
6 When It Comes to Love 5:14
7 Heaven 5:11
8 You Say, I Say 5:25
9 Angel of the Night 5:19
10 Love Don't Love Nobody 7:51
11 This Side of Heaven 5:59
Доп. информация: рип сделан с оригинального cd из моей коллекции .
 
скрытый текст
Exact Audio Copy V0.99 prebeta 5 from 4. May 2009
Отчёт EAC об извлечении, выполненном 27. марта 2010, 17:46
Phil Perry / Pure Pleasure
Дисковод: SONY DVD RW DRX-S70U Adapter: 2 ID: 0
Режим чтения : Достоверность
Использование точного потока : Да
Отключение кэша аудио : Да
Использование указателей C2 : Нет
Коррекция смещения при чтении : 48
Способность читать области Lead-in и Lead-out : Нет
Заполнение пропущенных сэмплов тишиной : Да
Удаление блоков с тишиной в начале и конце : Нет
При вычислениях CRC использовались нулевые сэмплы : Да
Интерфейс : Встроенный Win32-интерфейс для Win NT/2000
Обработка зазоров : Добавлено к предыдущему треку
Выходной формат : Пользовательский кодировщик
Выбранный битрейт : 768 kBit/s
Качество : Высокий
Добавление ID3-тэга : Нет
Утилита сжатия : C:\Program Files\Exact Audio Copy\FLAC\FLAC.EXE
Дополнительные параметры : -6 -V -T "ARTIST=%a" -T "TITLE=%t" -T "ALBUM=%g" -T "DATE=%y" -T "TRACKNUMBER=%n" -T "GENRE=%m" -T "COMMENT=%e" %s -o %d
TOC извлечённого CD
Трек | Старт | Длительность | Начальный сектор | Конечный сектор
---------------------------------------------------------------------
1 | 0:00.32 | 4:50.33 | 32 | 21814
2 | 4:50.65 | 4:52.15 | 21815 | 43729
3 | 9:43.05 | 4:19.37 | 43730 | 63191
4 | 14:02.42 | 5:13.10 | 63192 | 86676
5 | 19:15.52 | 4:06.70 | 86677 | 105196
6 | 23:22.47 | 5:13.58 | 105197 | 128729
7 | 28:36.30 | 5:10.50 | 128730 | 152029
8 | 33:47.05 | 5:24.60 | 152030 | 176389
9 | 39:11.65 | 5:18.62 | 176390 | 200301
10 | 44:30.52 | 7:50.45 | 200302 | 235596
11 | 52:21.22 | 5:58.60 | 235597 | 262506
Трек 1
Имя файла d:\My Documents\Phil Perry 1994\01.Phil Perry-One Touch.wav
Длина предзазора 0:00:02.42
Пиковый уровень 99.6 %
Качество трека 100.0 %
CRC теста 580FB97F
CRC копии 580FB97F
Точное извлечение (достоверность 5) [1BBB16AD]
Копирование... OK
Трек 2
Имя файла d:\My Documents\Phil Perry 1994\02.Phil Perry-The Way That I Want U.wav
Длина предзазора 0:00:00.86
Пиковый уровень 95.9 %
Качество трека 99.9 %
CRC теста D84BDAFB
CRC копии D84BDAFB
Точное извлечение (достоверность 5) [19A0325C]
Копирование... OK
Трек 3
Имя файла d:\My Documents\Phil Perry 1994\03.Phil Perry-After the Love Has Gone.wav
Длина предзазора 0:00:00.77
Пиковый уровень 96.2 %
Качество трека 100.0 %
CRC теста 645BDAC6
CRC копии 645BDAC6
Точное извлечение (достоверность 5) [AF2468C3]
Копирование... OK
Трек 4
Имя файла d:\My Documents\Phil Perry 1994\04.Phil Perry-If Only You Knew.wav
Длина предзазора 0:00:01.70
Пиковый уровень 95.1 %
Качество трека 99.9 %
CRC теста A0BBEF2E
CRC копии A0BBEF2E
Точное извлечение (достоверность 5) [4D9C75A2]
Копирование... OK
Трек 5
Имя файла d:\My Documents\Phil Perry 1994\05.Phil Perry-Love It, Love It.wav
Длина предзазора 0:00:01.49
Пиковый уровень 91.9 %
Качество трека 100.0 %
CRC теста 602A4344
CRC копии 602A4344
Точное извлечение (достоверность 5) [60A0FB50]
Копирование... OK
Трек 6
Имя файла d:\My Documents\Phil Perry 1994\06.Phil Perry-When It Comes to Love.wav
Длина предзазора 0:00:00.80
Пиковый уровень 98.1 %
Качество трека 100.0 %
CRC теста 69F9A0AA
CRC копии 69F9A0AA
Точное извлечение (достоверность 5) [93F5765B]
Копирование... OK
Трек 7
Имя файла d:\My Documents\Phil Perry 1994\07.Phil Perry-Heaven.wav
Длина предзазора 0:00:01.17
Пиковый уровень 94.0 %
Качество трека 100.0 %
CRC теста 192ECED3
CRC копии 192ECED3
Точное извлечение (достоверность 5) [1AB3631E]
Копирование... OK
Трек 8
Имя файла d:\My Documents\Phil Perry 1994\08.Phil Perry-You Say, I Say.wav
Длина предзазора 0:00:01.46
Пиковый уровень 93.8 %
Качество трека 100.0 %
CRC теста 39AE9874
CRC копии 39AE9874
Точное извлечение (достоверность 5) [9EBB2C7B]
Копирование... OK
Трек 9
Имя файла d:\My Documents\Phil Perry 1994\09.Phil Perry-Angel of the Night.wav
Длина предзазора 0:00:01.00
Пиковый уровень 91.2 %
Качество трека 100.0 %
CRC теста F4B5BA1A
CRC копии F4B5BA1A
Точное извлечение (достоверность 5) [D0E27F34]
Копирование... OK
Трек 10
Имя файла d:\My Documents\Phil Perry 1994\10.Phil Perry-Love Don't Love Nobody.wav
Длина предзазора 0:00:00.60
Пиковый уровень 99.9 %
Качество трека 100.0 %
CRC теста 20CD473C
CRC копии 20CD473C
Точное извлечение (достоверность 5) [5DC37D50]
Копирование... OK
Трек 11
Имя файла d:\My Documents\Phil Perry 1994\11.Phil Perry-This Side of Heaven.wav
Длина предзазора 0:00:01.80
Пиковый уровень 99.9 %
Качество трека 100.0 %
CRC теста DB0E82B8
CRC копии DB0E82B8
Точное извлечение (достоверность 5) [05B3A5A5]
Копирование... OK
Все треки извлечены точно
Ошибок не произошло
Конец отчёта
 
скрытый текст
AUDIOCHECKER v2.0 beta (build 457) - by Dester - opdester@freemail.hu
~~~~~~~~~~~~~~~~~~~~~~~~~~~~~~~~~~
-=== DO NOT EDIT THIS FILE! ===-
Путь: ...\Phil Perry 1994
01 -=- 01.Phil Perry-One Touch.flac -=- CDDA (99%)
02 -=- 02.Phil Perry-The Way That I Want U.flac -=- CDDA (100%)
03 -=- 03.Phil Perry-After the Love Has Gone.flac -=- CDDA (100%)
04 -=- 04.Phil Perry-If Only You Knew.flac -=- CDDA (100%)
05 -=- 05.Phil Perry-Love It, Love It.flac -=- CDDA (99%)
06 -=- 06.Phil Perry-When It Comes to Love.flac -=- CDDA (100%)
07 -=- 07.Phil Perry-Heaven.flac -=- CDDA (100%)
08 -=- 08.Phil Perry-You Say, I Say.flac -=- CDDA (100%)
09 -=- 09.Phil Perry-Angel of the Night.flac -=- CDDA (100%)
10 -=- 10.Phil Perry-Love Don't Love Nobody.flac -=- CDDA (100%)
11 -=- 11.Phil Perry-This Side of Heaven.flac -=- CDDA (100%)
Сводка 99,82% CDDA
125575924
 
скрытый текст
REM GENRE Soul
REM DATE 1994
REM DISCID 8F0DAC0B
REM COMMENT "ExactAudioCopy v0.99pb5"
PERFORMER "Phil Perry"
TITLE "Pure Pleasure"
FILE "01.Phil Perry-One Touch.wav" WAVE
TRACK 01 AUDIO
TITLE "One Touch"
PERFORMER "Phil Perry"
PREGAP 00:00:32
INDEX 01 00:00:00
TRACK 02 AUDIO
TITLE "The Way That I Want U"
PERFORMER "Phil Perry"
INDEX 00 04:49:43
FILE "02.Phil Perry-The Way That I Want U.wav" WAVE
INDEX 01 00:00:00
TRACK 03 AUDIO
TITLE "After the Love Has Gone"
PERFORMER "Phil Perry"
INDEX 00 04:51:32
FILE "03.Phil Perry-After the Love Has Gone.wav" WAVE
INDEX 01 00:00:00
TRACK 04 AUDIO
TITLE "If Only You Knew"
PERFORMER "Phil Perry"
INDEX 00 04:17:59
FILE "04.Phil Perry-If Only You Knew.wav" WAVE
INDEX 01 00:00:00
TRACK 05 AUDIO
TITLE "Love It, Love It"
PERFORMER "Phil Perry"
INDEX 00 05:11:48
FILE "05.Phil Perry-Love It, Love It.wav" WAVE
INDEX 01 00:00:00
TRACK 06 AUDIO
TITLE "When It Comes to Love"
PERFORMER "Phil Perry"
INDEX 00 04:06:10
FILE "06.Phil Perry-When It Comes to Love.wav" WAVE
INDEX 01 00:00:00
TRACK 07 AUDIO
TITLE "Heaven"
PERFORMER "Phil Perry"
INDEX 00 05:12:45
FILE "07.Phil Perry-Heaven.wav" WAVE
INDEX 01 00:00:00
TRACK 08 AUDIO
TITLE "You Say, I Say"
PERFORMER "Phil Perry"
INDEX 00 05:09:15
FILE "08.Phil Perry-You Say, I Say.wav" WAVE
INDEX 01 00:00:00
TRACK 09 AUDIO
TITLE "Angel of the Night"
PERFORMER "Phil Perry"
INDEX 00 05:23:60
FILE "09.Phil Perry-Angel of the Night.wav" WAVE
INDEX 01 00:00:00
TRACK 10 AUDIO
TITLE "Love Don't Love Nobody"
PERFORMER "Phil Perry"
INDEX 00 05:18:17
FILE "10.Phil Perry-Love Don't Love Nobody.wav" WAVE
INDEX 01 00:00:00
TRACK 11 AUDIO
TITLE "This Side of Heaven"
PERFORMER "Phil Perry"
INDEX 00 07:48:60
FILE "11.Phil Perry-This Side of Heaven.wav" WAVE
INDEX 01 00:00:00
Приватный:
Нет (DHT включён)
Размер:
384.42 Мб (403,097,635 байт) » файлов: 15
Участники:
0 раздают, 0 качают (0 участников всего)
Внешние участники:
3 раздают, 1 качают (4 участников всего) [ Обновить ]
Нет сидеров - пишите личное сообщение M0p94ok. Не нравятся торренты? Участники группы Pro-jazz Club могут заказать прямую ссылку на скачивание из облака.
No seeders - write a personal message to M0p94ok. Don't like torrents? Members of Pro-jazz Club group can order a direct download link from the cloud.
03:52
24
Нет комментариев. Ваш будет первым!