Поиск

(Soul/ Funk) Eddie Hinton - Very Extremely Dangerous - 1978, FLAC (tracks+.cue), lossless

Треклист:
Eddie Hinton - Very Extremely Dangerous Жанр: Soul/ Funk
Год выпуска диска: 1978
Производитель диска: USA
Аудио кодек: FLAC
Тип рипа: tracks+.cue
Битрейт аудио: lossless
Продолжительность: 40:53
 
Трэклист
1.You Got Me Singing
2.Concept World
3.I Got The Feeling
4.Shout Bamalama
5.Get Off In It
6.Brand New Man
7.Shoot The Moon
8.We Got It
9.Yeah Man
10.I Want It All

 
Отчет EAC
Exact Audio Copy V0.99 prebeta 5 from 4. May 2009
EAC extraction logfile from 30. March 2010, 2:09
Eddie Hinton / Very Extremely Dangerous
Used drive : ASUS DRW-2014S1T Adapter: 2 ID: 0
Read mode : Secure
Utilize accurate stream : Yes
Defeat audio cache : Yes
Make use of C2 pointers : No
Read offset correction : 6
Overread into Lead-In and Lead-Out : No
Fill up missing offset samples with silence : Yes
Delete leading and trailing silent blocks : No
Null samples used in CRC calculations : Yes
Used interface : Installed external ASPI interface
Gap handling : Appended to previous track
Used output format : User Defined Encoder
Selected bitrate : 1024 kBit/s
Quality : High
Add ID3 tag : No
Command line compressor : C:\Program Files\Exact Audio Copy\Flac\flac.exe
Additional command line options : -8 -V -T "ARTIST=%a" -T "TITLE=%t" -T "ALBUM=%g" -T "DATE=%y" -T "TRACKNUMBER=%n" -T "GENRE=%m" -T "COMMENT=EAC FLAC -8" %s
TOC of the extracted CD
Track | Start | Length | Start sector | End sector
---------------------------------------------------------
1 | 0:00.00 | 3:31.67 | 0 | 15891
2 | 3:31.67 | 4:59.03 | 15892 | 38319
3 | 8:30.70 | 5:22.22 | 38320 | 62491
4 | 13:53.17 | 3:47.50 | 62492 | 79566
5 | 17:40.67 | 4:36.10 | 79567 | 100276
6 | 22:17.02 | 2:59.60 | 100277 | 113761
7 | 25:16.62 | 4:05.25 | 113762 | 132161
8 | 29:22.12 | 5:08.18 | 132162 | 155279
9 | 34:30.30 | 4:14.62 | 155280 | 174391
10 | 38:45.17 | 3:18.38 | 174392 | 189279
Track 1
Filename E:\games\Eddie Hinton\01.Eddie Hinton-You Got Me Singing.wav
Pre-gap length 0:00:02.00
Peak level 100.0 %
Track quality 100.0 %
Test CRC 7A92A99D
Copy CRC 7A92A99D
Copy OK
Track 2
Filename E:\games\Eddie Hinton\02.Eddie Hinton-Concept World.wav
Peak level 97.4 %
Track quality 100.0 %
Test CRC FD54E561
Copy CRC FD54E561
Copy OK
Track 3
Filename E:\games\Eddie Hinton\03.Eddie Hinton-I Got The Feeling.wav
Peak level 100.0 %
Track quality 100.0 %
Test CRC 38CC352D
Copy CRC 38CC352D
Copy OK
Track 4
Filename E:\games\Eddie Hinton\04.Eddie Hinton-Shout Bamalama.wav
Peak level 95.7 %
Track quality 100.0 %
Test CRC C3C6F3DD
Copy CRC C3C6F3DD
Copy OK
Track 5
Filename E:\games\Eddie Hinton\05.Eddie Hinton-Get Off In It.wav
Peak level 98.7 %
Track quality 100.0 %
Test CRC FD2BC4B6
Copy CRC FD2BC4B6
Copy OK
Track 6
Filename E:\games\Eddie Hinton\06.Eddie Hinton-Brand New Man.wav
Peak level 97.4 %
Track quality 100.0 %
Test CRC 5B86145F
Copy CRC 5B86145F
Copy OK
Track 7
Filename E:\games\Eddie Hinton\07.Eddie Hinton-Shoot The Moon.wav
Peak level 98.9 %
Track quality 100.0 %
Test CRC 55C45357
Copy CRC 55C45357
Copy OK
Track 8
Filename E:\games\Eddie Hinton\08.Eddie Hinton-We Got It.wav
Peak level 100.0 %
Track quality 100.0 %
Test CRC 614AAEE4
Copy CRC 614AAEE4
Copy OK
Track 9
Filename E:\games\Eddie Hinton\09.Eddie Hinton-Yeah Man.wav
Peak level 100.0 %
Track quality 100.0 %
Test CRC B29747AC
Copy CRC B29747AC
Copy OK
Track 10
Filename E:\games\Eddie Hinton\10.Eddie Hinton-I Want It All.wav
Peak level 100.0 %
Track quality 100.0 %
Test CRC DBDF3D72
Copy CRC DBDF3D72
Copy OK
No errors occurred
End of status report
 
Отчет CUE
REM GENRE Soul
REM DATE 1978
REM DISCID 7309DB0A
REM COMMENT "ExactAudioCopy v0.99pb5"
PERFORMER "Eddie Hinton"
TITLE "Very Extremely Dangerous"
FILE "01.Eddie Hinton-You Got Me Singing.wav" WAVE
TRACK 01 AUDIO
TITLE "You Got Me Singing"
PERFORMER "Eddie Hinton"
INDEX 01 00:00:00
FILE "02.Eddie Hinton-Concept World.wav" WAVE
TRACK 02 AUDIO
TITLE "Concept World"
PERFORMER "Eddie Hinton"
INDEX 01 00:00:00
FILE "03.Eddie Hinton-I Got The Feeling.wav" WAVE
TRACK 03 AUDIO
TITLE "I Got The Feeling"
PERFORMER "Eddie Hinton"
INDEX 01 00:00:00
FILE "04.Eddie Hinton-Shout Bamalama.wav" WAVE
TRACK 04 AUDIO
TITLE "Shout Bamalama"
PERFORMER "Eddie Hinton"
INDEX 01 00:00:00
FILE "05.Eddie Hinton-Get Off In It.wav" WAVE
TRACK 05 AUDIO
TITLE "Get Off In It"
PERFORMER "Eddie Hinton"
INDEX 01 00:00:00
FILE "06.Eddie Hinton-Brand New Man.wav" WAVE
TRACK 06 AUDIO
TITLE "Brand New Man"
PERFORMER "Eddie Hinton"
INDEX 01 00:00:00
FILE "07.Eddie Hinton-Shoot The Moon.wav" WAVE
TRACK 07 AUDIO
TITLE "Shoot The Moon"
PERFORMER "Eddie Hinton"
INDEX 01 00:00:00
FILE "08.Eddie Hinton-We Got It.wav" WAVE
TRACK 08 AUDIO
TITLE "We Got It"
PERFORMER "Eddie Hinton"
INDEX 01 00:00:00
FILE "09.Eddie Hinton-Yeah Man.wav" WAVE
TRACK 09 AUDIO
TITLE "Yeah Man"
PERFORMER "Eddie Hinton"
INDEX 01 00:00:00
FILE "10.Eddie Hinton-I Want It All.wav" WAVE
TRACK 10 AUDIO
TITLE "I Want It All"
PERFORMER "Eddie Hinton"
INDEX 01 00:00:00
Приватный:
Нет (DHT включён)
Размер:
250.12 Мб (262,267,266 байт) » файлов: 13
Участники:
0 раздают, 0 качают (0 участников всего)
Внешние участники:
3 раздают, 1 качают (4 участников всего) [ Обновить ]
Нет сидеров - пишите личное сообщение M0p94ok. Не нравятся торренты? Участники группы Pro-jazz Club могут заказать прямую ссылку на скачивание из облака.
No seeders - write a personal message to M0p94ok. Don't like torrents? Members of Pro-jazz Club group can order a direct download link from the cloud.
03:53
27
Нет комментариев. Ваш будет первым!