Поиск

(Funk, R&B) James Brown's Funky People (Part 2) - 1988, FLAC (tracks+.cue), lossless

Треклист:
Various Artists (VA) - James Brown's Funky People (Part 2)
Исполнитель: Various Artists (VA)
Альбом: James Brown's Funky People (Part 2)
Страна: United States
Лейбл: Polydor / Umgd
Дата выпуска: 1988
Жанр: Funk, R&B
Формат: FLAC (tracks+cue)
Битрейт: lossless
Продолжительность: 00:58:51
Источник: emule
Треклист:
01. I Know You Got Soul (Long Version) [00:04:42]
02. From The Love Side [00:03:16]
03. What Do I Have To Do To Prove My Love To You [00:02:28]
04. Soul Power '74 [00:04:10]
05. Put It On The Line [00:03:35]
06. You Can Have Watergate, But Gimme Some Bucks and I'll Be Straight (Parts 1 & 2) [00:06:24]
07. Cross The Track (We Better Go Back) [00:03:20]
08. The Message From The Soul Sisters (Parts 1 & 2) [00:04:14]
09. Hot Pants . . . I'm Coming, Coming, I'm Coming [00:02:27]
10. Do Your Thing [00:03:59]
11. I'm Paying Taxes, What Am I Buying [00:09:49]
12. Super Good (Parts 1 & 2) [00:05:36]
13. Blow Your Head [00:04:43]
Доп. информация:
 
Отчёт EAC
Exact Audio Copy V0.99 prebeta 5 from 4. May 2009
EAC extraction logfile from 27. March 2010, 11:08
Various / James Brown's Funky People (Part 2)
Used drive : HL-DT-STDVD-RAM GH22NP20 Adapter: 1 ID: 1
Read mode : Secure
Utilize accurate stream : Yes
Defeat audio cache : Yes
Make use of C2 pointers : No
Read offset correction : 102
Overread into Lead-In and Lead-Out : No
Fill up missing offset samples with silence : Yes
Delete leading and trailing silent blocks : No
Null samples used in CRC calculations : Yes
Used interface : Installed external ASPI interface
Gap handling : Appended to previous track
Used output format : User Defined Encoder
Selected bitrate : 1024 kBit/s
Quality : High
Add ID3 tag : No
Command line compressor : C:\Program Files\Exact Audio Copy\FLAC\FLAC.EXE
Additional command line options : -3 -V -T "ARTIST=%a" -T "TITLE=%t" -T "ALBUM=%g" -T "DATE=%y" -T "TRACKNUMBER=%n" -T "GENRE=%m" -T "COMMENT=%e" %s -o %d
Use compression offset : 48
TOC of the extracted CD
Track | Start | Length | Start sector | End sector
---------------------------------------------------------
1 | 0:00.33 | 4:42.42 | 33 | 21224
2 | 4:43.00 | 3:16.43 | 21225 | 35967
3 | 7:59.43 | 2:28.25 | 35968 | 47092
4 | 10:27.68 | 4:10.35 | 47093 | 65877
5 | 14:38.28 | 3:35.50 | 65878 | 82052
6 | 18:14.03 | 6:24.45 | 82053 | 110897
7 | 24:38.48 | 3:20.60 | 110898 | 125957
8 | 27:59.33 | 4:14.62 | 125958 | 145069
9 | 32:14.20 | 2:27.08 | 145070 | 156102
10 | 34:41.28 | 3:59.60 | 156103 | 174087
11 | 38:41.13 | 9:49.60 | 174088 | 218322
12 | 48:30.73 | 5:36.17 | 218323 | 243539
13 | 54:07.15 | 4:43.18 | 243540 | 264782
Track 1
Filename C:\New Folder\01. Bobby Byrd - I Know You Got Soul (Long Version).wav
Pre-gap length 0:00:02.33
Peak level 97.7 %
Track quality 99.9 %
Copy CRC 9FBA9056
Accurately ripped (confidence 8) [B47F6BF2]
Copy OK
Track 2
Filename C:\New Folder\02. Hank Ballard & The Midnight Lighters - From The Love Side.wav
Pre-gap length 0:00:00.72
Peak level 89.2 %
Track quality 99.9 %
Copy CRC 9B93F354
Accurately ripped (confidence 8) [16599C56]
Copy OK
Track 3
Filename C:\New Folder\03. Marva Whitney - What Do I Have To Do To Prove My Love To You.wav
Pre-gap length 0:00:01.42
Peak level 97.7 %
Track quality 100.0 %
Copy CRC A1268278
Accurately ripped (confidence 8) [6BB7AA93]
Copy OK
Track 4
Filename C:\New Folder\04. Maceo & The Macks - Soul Power '74.wav
Pre-gap length 0:00:01.51
Peak level 97.7 %
Track quality 100.0 %
Copy CRC 32EEF712
Accurately ripped (confidence 8) [8225875B]
Copy OK
Track 5
Filename C:\New Folder\05. Lyn Collins - Put It On The Line.wav
Pre-gap length 0:00:02.37
Peak level 93.9 %
Track quality 100.0 %
Copy CRC A90C5246
Accurately ripped (confidence 7) [F156A570]
Copy OK
Track 6
Filename C:\New Folder\06. Fred Wesley & The JB's - You Can Have Watergate, But Gimme Some Bucks and I'll Be Straight (Parts 1 & 2).wav
Pre-gap length 0:00:02.48
Peak level 92.2 %
Track quality 100.0 %
Copy CRC 13EC6540
Accurately ripped (confidence 8) [FC77BE77]
Copy OK
Track 7
Filename C:\New Folder\07. Maceo & The Macks - Cross The Track (We Better Go Back).wav
Pre-gap length 0:00:02.35
Peak level 90.8 %
Track quality 100.0 %
Copy CRC A16C9164
Accurately ripped (confidence 8) [DDAB7877]
Copy OK
Track 8
Filename C:\New Folder\08. Myra Barnes (Vicki Anderson) - The Message From The Soul Sisters (Parts 1 & 2).wav
Pre-gap length 0:00:01.61
Peak level 94.5 %
Track quality 100.0 %
Copy CRC 72521FCB
Accurately ripped (confidence 8) [2DAA9502]
Copy OK
Track 9
Filename C:\New Folder\09. Bobby Byrd - Hot Pants . . . I'm Coming, Coming, I'm Coming.wav
Pre-gap length 0:00:00.29
Peak level 97.7 %
Track quality 99.9 %
Copy CRC 6521182C
Accurately ripped (confidence 8) [3DD18678]
Copy OK
Track 10
Filename C:\New Folder\10. Lyn Collins - Do Your Thing.wav
Pre-gap length 0:00:01.53
Peak level 87.5 %
Track quality 100.0 %
Copy CRC DCBA54F0
Accurately ripped (confidence 8) [69A54364]
Copy OK
Track 11
Filename C:\New Folder\11. Fred Wesley & The JB's - I'm Paying Taxes, What Am I Buying.wav
Pre-gap length 0:00:01.58
Peak level 81.7 %
Track quality 100.0 %
Copy CRC F9D9615C
Accurately ripped (confidence 7) [D3B9C01C]
Copy OK
Track 12
Filename C:\New Folder\12. Myra Barnes (Vicki Anderson) - Super Good (Parts 1 & 2).wav
Pre-gap length 0:00:01.70
Peak level 84.3 %
Track quality 100.0 %
Copy CRC BC9B50D2
Accurately ripped (confidence 7) [A75396F5]
Copy OK
Track 13
Filename C:\New Folder\13. Fred Wesley & The JB's - Blow Your Head.wav
Pre-gap length 0:00:01.27
Peak level 85.0 %
Track quality 99.9 %
Copy CRC 35D56EE6
Accurately ripped (confidence 7) [1935AD60]
Copy OK
All tracks accurately ripped
No errors occurred
End of status report
 
CUE
REM GENRE Funk
REM DATE 1988
REM DISCID B60DCA0D
REM COMMENT "ExactAudioCopy v0.99pb5"
PERFORMER "Various"
TITLE "James Brown's Funky People (Part 2)"
FILE "01. Bobby Byrd - I Know You Got Soul (Long Version).wav" WAVE
TRACK 01 AUDIO
TITLE "I Know You Got Soul (Long Version)"
PERFORMER "Bobby Byrd"
PREGAP 00:00:33
INDEX 01 00:00:00
TRACK 02 AUDIO
TITLE "From The Love Side"
PERFORMER "Hank Ballard & The Midnight Lighters"
INDEX 00 04:41:45
FILE "02. Hank Ballard & The Midnight Lighters - From The Love Side.wav" WAVE
INDEX 01 00:00:00
TRACK 03 AUDIO
TITLE "What Do I Have To Do To Prove My Love To You"
PERFORMER "Marva Whitney"
INDEX 00 03:15:01
FILE "03. Marva Whitney - What Do I Have To Do To Prove My Love To You.wav" WAVE
INDEX 01 00:00:00
TRACK 04 AUDIO
TITLE "Soul Power '74"
PERFORMER "Maceo & The Macks"
INDEX 00 02:26:49
FILE "04. Maceo & The Macks - Soul Power '74.wav" WAVE
INDEX 01 00:00:00
TRACK 05 AUDIO
TITLE "Put It On The Line"
PERFORMER "Lyn Collins"
INDEX 00 04:07:73
FILE "05. Lyn Collins - Put It On The Line.wav" WAVE
INDEX 01 00:00:00
TRACK 06 AUDIO
TITLE "You Can Have Watergate, But Gimme Some Bucks and I'll Be Straight (Parts 1 & 2)"
PERFORMER "Fred Wesley & The JB's"
INDEX 00 03:33:02
FILE "06. Fred Wesley & The JB's - You Can Have Watergate, But Gimme Some Bucks and I'll Be Straight (Parts 1 & 2).wav" WAVE
INDEX 01 00:00:00
TRACK 07 AUDIO
TITLE "Cross The Track (We Better Go Back)"
PERFORMER "Maceo & The Macks"
INDEX 00 06:22:10
FILE "07. Maceo & The Macks - Cross The Track (We Better Go Back).wav" WAVE
INDEX 01 00:00:00
TRACK 08 AUDIO
TITLE "The Message From The Soul Sisters (Parts 1 & 2)"
PERFORMER "Myra Barnes (Vicki Anderson)"
INDEX 00 03:18:74
FILE "08. Myra Barnes (Vicki Anderson) - The Message From The Soul Sisters (Parts 1 & 2).wav" WAVE
INDEX 01 00:00:00
TRACK 09 AUDIO
TITLE "Hot Pants . . . I'm Coming, Coming, I'm Coming"
PERFORMER "Bobby Byrd"
INDEX 00 04:14:33
FILE "09. Bobby Byrd - Hot Pants . . . I'm Coming, Coming, I'm Coming.wav" WAVE
INDEX 01 00:00:00
TRACK 10 AUDIO
TITLE "Do Your Thing"
PERFORMER "Lyn Collins"
INDEX 00 02:25:30
FILE "10. Lyn Collins - Do Your Thing.wav" WAVE
INDEX 01 00:00:00
TRACK 11 AUDIO
TITLE "I'm Paying Taxes, What Am I Buying"
PERFORMER "Fred Wesley & The JB's"
INDEX 00 03:58:02
FILE "11. Fred Wesley & The JB's - I'm Paying Taxes, What Am I Buying.wav" WAVE
INDEX 01 00:00:00
TRACK 12 AUDIO
TITLE "Super Good (Parts 1 & 2)"
PERFORMER "Myra Barnes (Vicki Anderson)"
INDEX 00 09:47:65
FILE "12. Myra Barnes (Vicki Anderson) - Super Good (Parts 1 & 2).wav" WAVE
INDEX 01 00:00:00
TRACK 13 AUDIO
TITLE "Blow Your Head"
PERFORMER "Fred Wesley & The JB's"
INDEX 00 05:34:65
FILE "13. Fred Wesley & The JB's - Blow Your Head.wav" WAVE
INDEX 01 00:00:00
 
Отчёт audiochecker
AUDIOCHECKER v2.0 beta (build 457) - by Dester - opdester@freemail.hu
~~~~~~~~~~~~~~~~~~~~~~~~~~~~~~~~~~
-=== НЕ РЕДАКТИРУЙТЕ ЭТОТ ФАЙЛ! ===-
Путь: ...\VA - James Brown's Funky People (Part 2)
01 -=- 01. Bobby Byrd - I Know You Got Soul (Long Version).flac -=- CDDA (100%)
02 -=- 02. Hank Ballard & The Midnight Lighters - From The Love Side.flac -=- CDDA (100%)
03 -=- 03. Marva Whitney - What Do I Have To Do To Prove My Love To You.flac -=- CDDA (100%)
04 -=- 04. Maceo & The Macks - Soul Power '74.flac -=- CDDA (100%)
05 -=- 05. Lyn Collins - Put It On The Line.flac -=- CDDA (100%)
06 -=- 06. Fred Wesley & The JB's - You Can Have Watergate, But Gimme Some Bucks and I'll Be Straight (Parts 1 & 2).flac -=- CDDA (100%)
07 -=- 07. Maceo & The Macks - Cross The Track (We Better Go Back).flac -=- CDDA (100%)
08 -=- 08. Myra Barnes (Vicki Anderson) - The Message From The Soul Sisters (Parts 1 & 2).flac -=- CDDA (99%)
09 -=- 09. Bobby Byrd - Hot Pants . . . I'm Coming, Coming, I'm Coming.flac -=- CDDA (100%)
10 -=- 10. Lyn Collins - Do Your Thing.flac -=- CDDA (100%)
11 -=- 11. Fred Wesley & The JB's - I'm Paying Taxes, What Am I Buying.flac -=- CDDA (99%)
12 -=- 12. Myra Barnes (Vicki Anderson) - Super Good (Parts 1 & 2).flac -=- CDDA (99%)
13 -=- 13. Fred Wesley & The JB's - Blow Your Head.flac -=- CDDA (100%)
Сводка 99,77% CDDA
92886660
Приватный:
Нет (DHT включён)
Размер:
384.80 Мб (403,487,971 байт) » файлов: 21
Участники:
0 раздают, 0 качают (0 участников всего)
Внешние участники:
2 раздают, 1 качают (3 участников всего) [ Обновить ]
Никого нет на раздаче - пишите личное сообщение M0p94ok
No seeders - write personal message to M0p94ok
03:54
39
Нет комментариев. Ваш будет первым!