Поиск

(Memphis Soul/Southern Soul) Al Green — Green Is Blues (1970) - 2003, FLAC (image+.cue), lossless

(Memphis Soul/Southern Soul) Al Green — Green Is Blues (1970) - 2003, FLAC (image+.cue), lossless
Треклист:
Al Green — Green Is Blues (1970)
Жанр: Memphis Soul/Southern Soul
Год выпуска диска: 2003
Производитель диска: Австралия (Hi)
Аудио кодек: FLAC
Тип рипа: image+.cue
Битрейт аудио: lossless
Продолжительность: 28:56
Трэклист:
01. One Woman 03:07
02. Talk To Me 02:09
03. My Girl 02:54
04. The Letter 02:28
05. I Stand Accused 03:21
06. Gotta Find A New World 02:29
07. What Am I Gonna Do With Myself 02:28
08. Tomorrow's Dream 02:22
09. Get Back Baby 02:11
10. Get Back 02:25
11. Summertime 02:58
 
отчёт ЕАС
Exact Audio Copy V0.99 prebeta 4 from 23. January 2008
Отчёт EAC об извлечении, выполненном 31. марта 2010, 0:51
Al Green / Green Is Blues
Дисковод: Optiarc DVD RW AD-7203S Adapter: 1 ID: 1
Режим чтения : Достоверность
Использование точного потока : Да
Отключение кэша аудио : Да
Использование указателей C2 : Нет
Коррекция смещения при чтении : 48
Способность читать области Lead-in и Lead-out : Нет
Заполнение пропущенных сэмплов тишиной : Да
Удаление блоков с тишиной в начале и конце : Нет
При вычислениях CRC использовались нулевые сэмплы : Да
Интерфейс : Встроенный Win32-интерфейс для Win NT/2000
Выходной формат : Пользовательский кодировщик
Выбранный битрейт : 1024 kBit/s
Качество : Высокий
Добавление ID3-тэга : Нет
Утилита сжатия : C:\Program Files\Exact Audio Copy\Flac\flac.exe
Дополнительные параметры : -V -8 -T "artist=%a" -T "title=%t" -T "album=%g" -T "date=%y" -T "tracknumber=%n" -T "genre=%m" %s
TOC извлечённого CD
Трек | Старт | Длительность | Начальный сектор | Конечный сектор
---------------------------------------------------------------------
1 | 0:00.32 | 3:07.13 | 32 | 14069
2 | 3:07.45 | 2:09.52 | 14070 | 23796
3 | 5:17.22 | 2:54.30 | 23797 | 36876
4 | 8:11.52 | 2:28.40 | 36877 | 48016
5 | 10:40.17 | 3:21.18 | 48017 | 63109
6 | 14:01.35 | 2:29.25 | 63110 | 74309
7 | 16:30.60 | 2:28.20 | 74310 | 85429
8 | 18:59.05 | 2:22.67 | 85430 | 96146
9 | 21:21.72 | 2:11.03 | 96147 | 105974
10 | 23:33.00 | 2:25.20 | 105975 | 116869
11 | 25:58.20 | 2:58.40 | 116870 | 130259
Характеристики диапазона извлечения и сообщения об ошибках
Выбранный диапазон
Имя файла D:\EAC-FOLDER\1970-Al Green - Green Is Blues\1970-Al Green - Green Is Blues\Al Green - Green Is Blues.wav
Пиковый уровень 85.4 %
Качество диапазона 100.0 %
CRC теста A60E65E9
CRC копии A60E65E9
Копирование... OK
Ошибок не произошло
AccurateRip: сводка
Трек 1 точность не определена (достоверность 3) [CBC77588], AccurateRip вернул [0B4415A0]
Трек 2 точность не определена (достоверность 3) [74493209], AccurateRip вернул [F64F9D91]
Трек 3 точность не определена (достоверность 3) [05731A40], AccurateRip вернул [EC744788]
Трек 4 точность не определена (достоверность 3) [4EDF7916], AccurateRip вернул [A7016ECE]
Трек 5 точность не определена (достоверность 3) [391ED102], AccurateRip вернул [69A8D832]
Трек 6 точность не определена (достоверность 3) [CCCD8D70], AccurateRip вернул [58374B38]
Трек 7 точность не определена (достоверность 3) [7A7EF0B4], AccurateRip вернул [8ACF177C]
Трек 8 точность не определена (достоверность 2) [C794836C], AccurateRip вернул [F14DA044]
Трек 9 точность не определена (достоверность 3) [F5C04E9F], AccurateRip вернул [71D86A5F]
Трек 10 точность не определена (достоверность 3) [8820D9CC], AccurateRip вернул [E0F7D744]
Трек 11 точность не определена (достоверность 3) [9A504ABB], AccurateRip вернул [8B3B8A93]
Ни один трек не прошёл проверки на точность
В вашей базе может быть иной вариант штамповки диска
Конец отчёта
Доп. информация:
Дебютный альбом преподобного на Hi Rec.
PS Рип свой, внутри сканы.
см. также:
Al Green — The Belle Album (1977)
Al Green — Tokyo...Live! (1981)
Al Green / You Say It! Raw Rare! and Unreleased! (1990)
Приватный:
Да (DHT отключён)
Размер:
154.33 Мб (161,830,276 байт) » файлов: 8
Участники:
0 раздают, 0 качают (0 участников всего)
Внешние участники:
2 раздают, 1 качают (3 участников всего) [ Обновить ]
Никого нет на раздаче - пишите личное сообщение M0p94ok
No seeders - write personal message to M0p94ok
03:54
20
Нет комментариев. Ваш будет первым!