Поиск

(jazz, funk, acid jazz) The Greyboy Allstars - Live - 1999, FLAC (tracks+.cue), lossless

Треклист:
The Greyboy Allstars - Live
Жанр: jazz, funk, acid jazz
Год выпуска диска: 1999
Аудио кодек: FLAC
Тип рипа: tracks+.cue
Битрейт аудио: lossless
Продолжительность: 01:11:08
Трэклист:
01. Hot Dog
02. Freshman 10
03. Get A Job
04. Happy Friends
05. Jack Rabbit
06. Duffin' Round
07. Check Out Your Mind
08. Hot Pants Breakdown
09. Tenor Man
10. Toys R Us
 
log
EAC extraction logfile from 17. June 2006, 10:21 for CD
The Greyboy Allstars / Live
Used drive : PIONEER DVD-RW DVR-107D Adapter: 1 ID: 0
Read mode : Secure with NO C2, accurate stream, disable cache
Read offset correction : 48
Overread into Lead-In and Lead-Out : No
Used output format : C:\Program Files\FLAC\flac.exe (User Defined Encoder)
128 kBit/s
Additional command line options : -V -8 -T "artist=%a" -T "title=%t" -T "album=%g" -T "date=%y" -T "tracknumber=%n" -T "genre=%m" %s
Other options :
Fill up missing offset samples with silence : Yes
Delete leading and trailing silent blocks : No
Native Win32 interface for Win NT & 2000
Track 1
Filename D:\OINK\FLAC\GreyboyAllstars_Live\The Greyboy Allstars_Live_01 - Hot Dog.wav
Pre-gap length 0:00:02.00
Peak level 79.1 %
Track quality 100.0 %
Test CRC 6D142B2A
Copy CRC 6D142B2A
Copy OK
Track 2
Filename D:\OINK\FLAC\GreyboyAllstars_Live\The Greyboy Allstars_Live_02 - Freshman 10.wav
Peak level 68.7 %
Track quality 99.9 %
Test CRC 6F54DFC3
Copy CRC 6F54DFC3
Copy OK
Track 3
Filename D:\OINK\FLAC\GreyboyAllstars_Live\The Greyboy Allstars_Live_03 - Get a Job.wav
Peak level 93.6 %
Track quality 100.0 %
Test CRC 13984C2D
Copy CRC 13984C2D
Copy OK
Track 4
Filename D:\OINK\FLAC\GreyboyAllstars_Live\The Greyboy Allstars_Live_04 - Happy Friends.wav
Peak level 99.1 %
Track quality 100.0 %
Test CRC BFB6B83B
Copy CRC BFB6B83B
Copy OK
Track 5
Filename D:\OINK\FLAC\GreyboyAllstars_Live\The Greyboy Allstars_Live_05 - Jack Rabbit.wav
Peak level 84.2 %
Track quality 100.0 %
Test CRC 0DCDBB53
Copy CRC 0DCDBB53
Copy OK
Track 6
Filename D:\OINK\FLAC\GreyboyAllstars_Live\The Greyboy Allstars_Live_06 - Duffin' Round.wav
Peak level 90.7 %
Track quality 100.0 %
Test CRC 4585EA4E
Copy CRC 4585EA4E
Copy OK
Track 7
Filename D:\OINK\FLAC\GreyboyAllstars_Live\The Greyboy Allstars_Live_07 - Check Out Your Mind.wav
Peak level 84.3 %
Track quality 100.0 %
Test CRC 7B31CCC2
Copy CRC 7B31CCC2
Copy OK
Track 8
Filename D:\OINK\FLAC\GreyboyAllstars_Live\The Greyboy Allstars_Live_08 - Hot Pants Breakdown.wav
Peak level 100.0 %
Track quality 100.0 %
Test CRC 75EB0745
Copy CRC 75EB0745
Copy OK
Track 9
Filename D:\OINK\FLAC\GreyboyAllstars_Live\The Greyboy Allstars_Live_09 - Tenor Man.wav
Peak level 95.4 %
Track quality 100.0 %
Test CRC 2A587542
Copy CRC 2A587542
Copy OK
Track 10
Filename D:\OINK\FLAC\GreyboyAllstars_Live\The Greyboy Allstars_Live_10 - Toys R Us.wav
Peak level 81.0 %
Track quality 100.0 %
Test CRC CC478C36
Copy CRC CC478C36
Copy OK
No errors occured
End of status report
 
cue
Код:
REM GENRE "Acid Jazz"
REM DATE 1999
REM DISCID 8410AD0A
REM COMMENT "ExactAudioCopy v0.95b4"
PERFORMER "The Greyboy Allstars"
TITLE "Live"
FILE "The Greyboy Allstars_Live_01 - Hot Dog.wav" WAVE
  TRACK 01 AUDIO
    TITLE "Hot Dog"
    PERFORMER "The Greyboy Allstars"
    INDEX 01 00:00:00
FILE "The Greyboy Allstars_Live_02 - Freshman 10.wav" WAVE
  TRACK 02 AUDIO
    TITLE "Freshman 10"
    PERFORMER "The Greyboy Allstars"
    INDEX 01 00:00:00
FILE "The Greyboy Allstars_Live_03 - Get a Job.wav" WAVE
  TRACK 03 AUDIO
    TITLE "Get a Job"
    PERFORMER "The Greyboy Allstars"
    INDEX 01 00:00:00
FILE "The Greyboy Allstars_Live_04 - Happy Friends.wav" WAVE
  TRACK 04 AUDIO
    TITLE "Happy Friends"
    PERFORMER "The Greyboy Allstars"
    INDEX 01 00:00:00
FILE "The Greyboy Allstars_Live_05 - Jack Rabbit.wav" WAVE
  TRACK 05 AUDIO
    TITLE "Jack Rabbit"
    PERFORMER "The Greyboy Allstars"
    INDEX 01 00:00:00
FILE "The Greyboy Allstars_Live_06 - Duffin' Round.wav" WAVE
  TRACK 06 AUDIO
    TITLE "Duffin' Round"
    PERFORMER "The Greyboy Allstars"
    INDEX 01 00:00:00
FILE "The Greyboy Allstars_Live_07 - Check Out Your Mind.wav" WAVE
  TRACK 07 AUDIO
    TITLE "Check Out Your Mind"
    PERFORMER "The Greyboy Allstars"
    INDEX 01 00:00:00
FILE "The Greyboy Allstars_Live_08 - Hot Pants Breakdown.wav" WAVE
  TRACK 08 AUDIO
    TITLE "Hot Pants Breakdown"
    PERFORMER "The Greyboy Allstars"
    INDEX 01 00:00:00
FILE "The Greyboy Allstars_Live_09 - Tenor Man.wav" WAVE
  TRACK 09 AUDIO
    TITLE "Tenor Man"
    PERFORMER "The Greyboy Allstars"
    INDEX 01 00:00:00
FILE "The Greyboy Allstars_Live_10 - Toys R Us.wav" WAVE
  TRACK 10 AUDIO
    TITLE "Toys R Us"
    PERFORMER "The Greyboy Allstars"
    INDEX 01 00:00:00

 
Доп. информация
The Greyboy Allstars (GBA) are a San Diego funk and jazz group created in the early 1990s. The group began as collaboration of DJ Greyboy (turntable) with Karl Denson (saxophone, flute) during weekly shows at the Green Circle Bar in San Diego and on the DJ Greyboy albums Home Cooking and Freestylin’. Together they gradually gathered musicians co-founding a house band including Robert Walter (keyboards), Chris Stillwell (bass), Elgin Park (also known as Mike Andrews) (guitar), and Zak Najor (drums). The Greyboy Allstars were a major part of the mid-90s acid jazz movement and a catalyst for renewed interest in late 60s/early 70s soul jazz. Denson has described the Greyboy Allstars as a boogaloo band, a distinction which has set them apart from other contemporary soul jazz/acid jazz combos.
In 1995, The Greyboy Allstars released their first album, West Coast Boogaloo, featuring support from James Brown trombonist and bandleader Fred Wesley. DJ Greyboy was uninterested in touring and the band continued on with his name led by Denson. In 1997 they released their second studio album, A Town Called Earth. Additionally, both Walter and Denson released solo albums backed by members of the band. Walter's album, titled Spirit of ’70, had additional support from Gary Bartz on alto sax, and Denson's The D Stands for Diesel featured vocalist Andy Bey. The Greyboy Allstars released a live album simply entitled Live in 1999. DJ Greyboy returned to collaborate with the band for the recording of What Happened to Television? released on April 17, 2007, The Greyboy Allstars' first studio album in nearly 10 years.
Before joining the band, bassist Chris Stillwell had a successful career as a highschool phys-ed instructor in his hometown of San Diego. His pupils lovingly refer to him as Coach C -- a moniker that is commonly cheered at the live shows.
Drummer Zak Najor played drums for the studio recording of What Happened to Television? However, Eric Kalb (Deep Banana Blackout) played drums for the subsequent tour.
The band toured nationally 2008 ending in New Orleans with sold out shows during Jazz Fest.


Диск взят с другого трекера. Спасибо alexsd
Приватный:
Нет (DHT включён)
Размер:
422.90 Мб (443,443,640 байт) » файлов: 13
Участники:
0 раздают, 0 качают (0 участников всего)
Внешние участники:
1 раздают, 0 качают (1 участников всего) [ Обновить ]
Никого нет на раздаче - пишите личное сообщение M0p94ok
No seeders - write personal message to M0p94ok
03:55
20
Нет комментариев. Ваш будет первым!