Поиск

(Smooth Jazz) Maysa Leak - Maysa - 1995, APE (image + .cue), lossless

Треклист:
(Smooth Jazz) Maysa Leak - Maysa

Жанр: Jazz+Funk
Год выпуска диска: 1995
Производитель диска: USA
Аудио кодек: APE
Тип рипа: image+.cue
Битрейт аудио: lossless
Продолжительность: 0:59:16
Источник: CD из собственной коллекции
Обложки: Front, Back, Inlay, Inside
Трэклист:
01. Prelude
02. What About Our Love?
03. Black Heaven
04. Sexy
05. More Than You Know
06. Can We Change The World?
07. Goodbye Manhattan
08. J.F.S.
09. Let It Go
10. Alone At Last
11. Rain Drops
12. Peace Of Mind
13. Goodbye
Доп. информация: Первый сольный альбом замечательной американской джазовой певицы Мэйсы Лик (Maysa Leak), вышедший в 1995г. на лейбле Blue Thumb/GRP Records и названный просто Maysa.
Как по мне, замечательный альбом, мелодичный и сочный, с великолепным звуком.
 
Audiocheck
 
EAC Log
Exact Audio Copy V0.99 prebeta 4 from 23. January 2008
Отчёт EAC об извлечении, выполненном 2. апреля 2010, 21:36
Maysa / Maysa
Дисковод: TEAC CD-W524E Adapter: 0 ID: 0
Режим чтения : Достоверность
Использование точного потока : Да
Отключение кэша аудио : Да
Использование указателей C2 : Нет
Коррекция смещения при чтении : 686
Способность читать области Lead-in и Lead-out : Нет
Заполнение пропущенных сэмплов тишиной : Да
Удаление блоков с тишиной в начале и конце : Нет
При вычислениях CRC использовались нулевые сэмплы : Да
Интерфейс : Установленный внешний ASPI-интерфейс
Выходной формат : Внутренние WAV-операции
Формат сэмплов : 44.100 Гц; 16 бит; стерео
TOC извлечённого CD
Трек | Старт | Длительность | Начальный сектор | Конечный сектор
---------------------------------------------------------------------
1 | 0:00.00 | 0:39.22 | 0 | 2946
2 | 0:39.22 | 4:42.53 | 2947 | 24149
3 | 5:22.00 | 4:19.05 | 24150 | 43579
4 | 9:41.05 | 4:39.72 | 43580 | 64576
5 | 14:21.02 | 4:38.53 | 64577 | 85479
6 | 18:59.55 | 5:08.50 | 85480 | 108629
7 | 24:08.30 | 4:41.32 | 108630 | 129736
8 | 28:49.62 | 5:29.05 | 129737 | 154416
9 | 34:18.67 | 4:48.65 | 154417 | 176081
10 | 39:07.57 | 5:12.55 | 176082 | 199536
11 | 44:20.37 | 4:45.43 | 199537 | 220954
12 | 49:06.05 | 5:18.15 | 220955 | 244819
13 | 54:24.20 | 4:52.05 | 244820 | 266724
Характеристики диапазона извлечения и сообщения об ошибках
Выбранный диапазон
Имя файла E:\Music\Music WAV\=Torrents=\Maysa Leak -1995- Maysa\Maysa Leak -1995- Maysa.wav
Пиковый уровень 100.0 %
Качество диапазона 100.0 %
CRC теста 7981E673
CRC копии 7981E673
Копирование... OK
Ошибок не произошло
Конец отчёта
Приватный:
Нет (DHT включён)
Размер:
391.99 Мб (411,028,581 байт) » файлов: 7
Участники:
0 раздают, 0 качают (0 участников всего)
Внешние участники:
1 раздают, 0 качают (1 участников всего) [ Обновить ]
Никого нет на раздаче - пишите личное сообщение M0p94ok
No seeders - write personal message to M0p94ok
03:56
42
Нет комментариев. Ваш будет первым!