Поиск

(Funk) Keziah Jones - African Space Craft - 1995, FLAC (image+.cue), lossless

Треклист:
Keziah Jones - African Space Craft
Жанр: Funk
Год выпуска диска: 1995
Производитель диска: Holland
Аудио кодек: FLAC
Тип рипа: image+.cue
Битрейт аудио: lossless
Продолжительность: 54:35
Трэклист:
01. Million Miles From Home [3:57]
02. Colorful World [4:55]
03. Prodigal Funk [4:51]
04. Splash [5:25]
05. Dear Mr. Cooper [4:34]
06. African Space Craft [8:14]
07. Speech [4:02]
08. Cubic Space Division [3:32]
09. Funk 'N' Circumstance [3:51]
10. Man With The Scar [4:19]
11. Never Gonna Let You Go [3:44]
12. If You Know [3:05]
Доп. информация:
(p) 1995 Delabel, DE 7243 8 40163 2 6
Долго искал этот альбом в lossless по сети. Дело кончилось приобретением фирменного компакта, да и то почти четыре месяца ждать пришлось. Сегодня я рад поделиться этой музыкой.
В комплекте раздачи полный скан оформления в PDF (300 пикс.)
 
Отчет EAC
Exact Audio Copy V0.99 prebeta 5 from 4. May 2009
Отчёт EAC об извлечении, выполненном 2. апреля 2010, 18:41
Keziah Jones / African Space Craft
Дисковод: Optiarc DVD RW AD-7240S Adapter: 2 ID: 0
Режим чтения : Достоверность
Использование точного потока : Да
Отключение кэша аудио : Да
Использование указателей C2 : Нет
Коррекция смещения при чтении : 48
Способность читать области Lead-in и Lead-out : Нет
Заполнение пропущенных сэмплов тишиной : Да
Удаление блоков с тишиной в начале и конце : Нет
При вычислениях CRC использовались нулевые сэмплы : Да
Интерфейс : Встроенный Win32-интерфейс для Win NT/2000
Выходной формат : Пользовательский кодировщик
Выбранный битрейт : 768 kBit/s
Качество : Высокий
Добавление ID3-тэга : Нет
Утилита сжатия : E:\Program Files\Exact Audio Copy\FLAC\FLAC.EXE
Дополнительные параметры : -6 -V -T "ARTIST=%a" -T "TITLE=%t" -T "ALBUM=%g" -T "DATE=%y" -T "TRACKNUMBER=%n" -T "GENRE=%m" -T "COMMENT=%e" %s -o %d
TOC извлечённого CD
Трек | Старт | Длительность | Начальный сектор | Конечный сектор
---------------------------------------------------------------------
1 | 0:00.00 | 3:57.43 | 0 | 17817
2 | 3:57.43 | 4:55.15 | 17818 | 39957
3 | 8:52.58 | 4:51.27 | 39958 | 61809
4 | 13:44.10 | 5:25.70 | 61810 | 86254
5 | 19:10.05 | 4:34.63 | 86255 | 106867
6 | 23:44.68 | 8:14.65 | 106868 | 143982
7 | 31:59.58 | 4:02.17 | 143983 | 162149
8 | 36:02.00 | 3:32.03 | 162150 | 178052
9 | 39:34.03 | 3:51.10 | 178053 | 195387
10 | 43:25.13 | 4:19.55 | 195388 | 214867
11 | 47:44.68 | 3:44.10 | 214868 | 231677
12 | 51:29.03 | 3:05.55 | 231678 | 245607
Характеристики диапазона извлечения и сообщения об ошибках
Выбранный диапазон
Имя файла F:\Lossless\Keziah Jones - African Space Craft\Keziah Jones - African Space Craft.wav
Пиковый уровень 100.0 %
Качество диапазона 100.0 %
CRC копии F0D3E332
Копирование... OK
Ошибок не произошло
AccurateRip: сводка
Трек 1 точное извлечение (доверие 39) [57613611]
Трек 2 точное извлечение (доверие 36) [2C39F79A]
Трек 3 точное извлечение (доверие 35) [C8E53CDD]
Трек 4 точное извлечение (доверие 39) [BC944C76]
Трек 5 точное извлечение (доверие 39) [B0F9E3F8]
Трек 6 точное извлечение (доверие 36) [83129D48]
Трек 7 точное извлечение (доверие 37) [2B35EC19]
Трек 8 точное извлечение (доверие 37) [891C0DB8]
Трек 9 точное извлечение (доверие 37) [8B2254A8]
Трек 10 точное извлечение (доверие 37) [8ED20AB6]
Трек 11 точное извлечение (доверие 36) [B118CD9C]
Трек 12 точное извлечение (доверие 34) [29EC047D]
Все треки извлечены точно
Конец отчёта
Приватный:
Нет (DHT включён)
Размер:
392.20 Мб (411,251,499 байт) » файлов: 6
Участники:
0 раздают, 0 качают (0 участников всего)
Внешние участники:
2 раздают, 1 качают (3 участников всего) [ Обновить ]
Никого нет на раздаче - пишите личное сообщение M0p94ok
No seeders - write personal message to M0p94ok
03:57
22
Нет комментариев. Ваш будет первым!