Поиск

(Blues) Aaron Lordson - When the Movie is sad - 2006, FLAC (tracks+.cue), lossless

Треклист:
(Blues) Aaron Lordson - When the Movie is sad (2006) [FLAC (tracks+cue), lossless]
Aaron Lordson - When the Movie is sad
Исполнитель: Aaron Lordson
Альбом: When the Movie is sad
Дата выпуска: 2006
Жанр: Blues
Формат: FLAC (tracks+cue)
Битрейт: lossless
Продолжительность: 00:38:59
Источник: emule
Треклист:
01. When the movie is sad [00:04:04]
02. This is my love [00:03:35]
03. I believe [00:04:19]
04. Kill me softly [00:04:09]
05. Never say goodbye [00:04:26]
06. Yes you are mine [00:03:46]
07. Begining [00:03:03]
08. Living from the street [00:03:02]
09. Keep busy [00:04:28]
10. I will always love you [00:04:02]
 
Отчёт EAC
Exact Audio Copy V0.99 prebeta 4 from 23. January 2008
EAC extraction logfile from 4. March 2010, 14:58
Aaron Lordson / When the Movie is sad
Used drive : PIONEER DVD-RW DVR-116D Adapter: 3 ID: 0
Read mode : Secure
Utilize accurate stream : Yes
Defeat audio cache : Yes
Make use of C2 pointers : No
Read offset correction : 96
Overread into Lead-In and Lead-Out : No
Fill up missing offset samples with silence : Yes
Delete leading and trailing silent blocks : No
Null samples used in CRC calculations : Yes
Used interface : Installed external ASPI interface
Gap handling : Appended to previous track
Used output format : Internal WAV Routines
Sample format : 44.100 Hz; 16 Bit; Stereo
TOC of the extracted CD
Track | Start | Length | Start sector | End sector
---------------------------------------------------------
1 | 0:00.00 | 4:04.73 | 0 | 18372
2 | 4:04.73 | 3:35.46 | 18373 | 34543
3 | 7:40.44 | 4:19.17 | 34544 | 53985
4 | 11:59.61 | 4:09.46 | 53986 | 72706
5 | 16:09.32 | 4:26.33 | 72707 | 92689
6 | 20:35.65 | 3:46.23 | 92690 | 109662
7 | 24:22.13 | 3:03.59 | 109663 | 123446
8 | 27:25.72 | 3:02.34 | 123447 | 137130
9 | 30:28.31 | 4:28.61 | 137131 | 157291
10 | 34:57.17 | 4:02.05 | 157292 | 175446
Track 1
Filename D:\Audio\CD\Lossless\01 - Aaron Lordson - When the movie is sad .wav
Pre-gap length 0:00:02.00
Peak level 100.0 %
Track quality 100.0 %
Test CRC 717D2AF1
Copy CRC 717D2AF1
Cannot be verified as accurate (confidence 1) [E3358BFA], AccurateRip returned [2369A14F]
Copy OK
Track 2
Filename D:\Audio\CD\Lossless\02 - Aaron Lordson - This is my love .wav
Pre-gap length 0:00:02.00
Peak level 100.0 %
Track quality 100.0 %
Test CRC 4CCA9A3A
Copy CRC 4CCA9A3A
Cannot be verified as accurate (confidence 1) [2FAAEE18], AccurateRip returned [19432A78]
Copy OK
Track 3
Filename D:\Audio\CD\Lossless\03 - Aaron Lordson - I believe .wav
Pre-gap length 0:00:02.00
Peak level 100.0 %
Track quality 100.0 %
Test CRC DDD9A807
Copy CRC DDD9A807
Cannot be verified as accurate (confidence 1) [B46367F0], AccurateRip returned [1E3ABB1E]
Copy OK
Track 4
Filename D:\Audio\CD\Lossless\04 - Aaron Lordson - Kill me softly .wav
Pre-gap length 0:00:02.00
Peak level 100.0 %
Track quality 100.0 %
Test CRC BB101595
Copy CRC BB101595
Cannot be verified as accurate (confidence 1) [3442A295], AccurateRip returned [BA9A0307]
Copy OK
Track 5
Filename D:\Audio\CD\Lossless\05 - Aaron Lordson - Never say goodbye .wav
Pre-gap length 0:00:02.00
Peak level 100.0 %
Track quality 100.0 %
Test CRC D938F3A1
Copy CRC D938F3A1
Cannot be verified as accurate (confidence 1) [8B399624], AccurateRip returned [A2E53858]
Copy OK
Track 6
Filename D:\Audio\CD\Lossless\06 - Aaron Lordson - Yes you are mine .wav
Pre-gap length 0:00:02.00
Peak level 100.0 %
Track quality 100.0 %
Test CRC F3993767
Copy CRC F3993767
Cannot be verified as accurate (confidence 1) [D83E80BC], AccurateRip returned [B7698104]
Copy OK
Track 7
Filename D:\Audio\CD\Lossless\07 - Aaron Lordson - Begining .wav
Pre-gap length 0:00:02.00
Peak level 100.0 %
Track quality 100.0 %
Test CRC AC0FF8C1
Copy CRC AC0FF8C1
Cannot be verified as accurate (confidence 1) [2D2FE8A9], AccurateRip returned [04E78985]
Copy OK
Track 8
Filename D:\Audio\CD\Lossless\08 - Aaron Lordson - Living from the street .wav
Pre-gap length 0:00:02.00
Peak level 100.0 %
Track quality 100.0 %
Test CRC EBDD2AD7
Copy CRC EBDD2AD7
Cannot be verified as accurate (confidence 1) [53ADFC0D], AccurateRip returned [0A7F98EF]
Copy OK
Track 9
Filename D:\Audio\CD\Lossless\09 - Aaron Lordson - Keep busy .wav
Pre-gap length 0:00:02.00
Peak level 100.0 %
Track quality 100.0 %
Test CRC 736122EC
Copy CRC 736122EC
Cannot be verified as accurate (confidence 1) [80B1B2CC], AccurateRip returned [BA0DCA6C]
Copy OK
Track 10
Filename D:\Audio\CD\Lossless\10 - Aaron Lordson - I will always love you .wav
Pre-gap length 0:00:02.00
Peak level 100.0 %
Track quality 99.9 %
Test CRC 0B7F5805
Copy CRC 0B7F5805
Cannot be verified as accurate (confidence 1) [0ACF6EA7], AccurateRip returned [FA91BC8F]
Copy OK
No tracks could be verified as accurate
You may have a different pressing from the one(s) in the database
No errors occurred
End of status report
 
CUE
REM DISCID 8309230A
REM COMMENT "ExactAudioCopy v0.99pb4"
PERFORMER "Aaron Lordson"
TITLE "When the Movie is sad"
FILE "01 - Aaron Lordson - When the movie is sad .wav" WAVE
TRACK 01 AUDIO
TITLE "When the movie is sad"
PERFORMER "Aaron Lordson"
INDEX 01 00:00:00
TRACK 02 AUDIO
TITLE "This is my love"
PERFORMER "Aaron Lordson"
INDEX 00 04:02:73
FILE "02 - Aaron Lordson - This is my love .wav" WAVE
INDEX 01 00:00:00
TRACK 03 AUDIO
TITLE "I believe"
PERFORMER "Aaron Lordson"
INDEX 00 03:33:46
FILE "03 - Aaron Lordson - I believe .wav" WAVE
INDEX 01 00:00:00
TRACK 04 AUDIO
TITLE "Kill me softly"
PERFORMER "Aaron Lordson"
INDEX 00 04:17:17
FILE "04 - Aaron Lordson - Kill me softly .wav" WAVE
INDEX 01 00:00:00
TRACK 05 AUDIO
TITLE "Never say goodbye"
PERFORMER "Aaron Lordson"
INDEX 00 04:07:46
FILE "05 - Aaron Lordson - Never say goodbye .wav" WAVE
INDEX 01 00:00:00
TRACK 06 AUDIO
TITLE "Yes you are mine"
PERFORMER "Aaron Lordson"
INDEX 00 04:24:33
FILE "06 - Aaron Lordson - Yes you are mine .wav" WAVE
INDEX 01 00:00:00
TRACK 07 AUDIO
TITLE "Begining"
PERFORMER "Aaron Lordson"
INDEX 00 03:44:23
FILE "07 - Aaron Lordson - Begining .wav" WAVE
INDEX 01 00:00:00
TRACK 08 AUDIO
TITLE "Living from the street"
PERFORMER "Aaron Lordson"
INDEX 00 03:01:59
FILE "08 - Aaron Lordson - Living from the street .wav" WAVE
INDEX 01 00:00:00
TRACK 09 AUDIO
TITLE "Keep busy"
PERFORMER "Aaron Lordson"
INDEX 00 03:00:34
FILE "09 - Aaron Lordson - Keep busy .wav" WAVE
INDEX 01 00:00:00
TRACK 10 AUDIO
TITLE "I will always love you"
PERFORMER "Aaron Lordson"
INDEX 00 04:26:61
FILE "10 - Aaron Lordson - I will always love you .wav" WAVE
INDEX 01 00:00:00
 
Отчёт audiochecker
AUDIOCHECKER v2.0 beta (build 457) - by Dester - opdester@freemail.hu
~~~~~~~~~~~~~~~~~~~~~~~~~~~~~~~~~~
-=== НЕ РЕДАКТИРУЙТЕ ЭТОТ ФАЙЛ! ===-
Путь: ...\Aaron Lordson - When the Movie is sad (2006)
01 -=- 01 - Aaron Lordson - When the movie is sad .flac -=- CDDA (100%)
02 -=- 02 - Aaron Lordson - This is my love .flac -=- CDDA (100%)
03 -=- 03 - Aaron Lordson - I believe .flac -=- MPEG (95%)
04 -=- 04 - Aaron Lordson - Kill me softly .flac -=- CDDA (99%)
05 -=- 05 - Aaron Lordson - Never say goodbye .flac -=- CDDA (100%)
06 -=- 06 - Aaron Lordson - Yes you are mine .flac -=- CDDA (100%)
07 -=- 07 - Aaron Lordson - Begining .flac -=- CDDA (100%)
08 -=- 08 - Aaron Lordson - Living from the street .flac -=- CDDA (100%)
09 -=- 09 - Aaron Lordson - Keep busy .flac -=- CDDA (100%)
10 -=- 10 - Aaron Lordson - I will always love you .flac -=- CDDA (100%)
Сводка 90,40% CDDA
147432276
Приватный:
Нет (DHT включён)
Размер:
178.08 Мб (186,725,898 байт) » файлов: 14
Участники:
0 раздают, 0 качают (0 участников всего)
Внешние участники:
--- [ Обновить ]
Никого нет на раздаче - пишите личное сообщение M0p94ok
No seeders - write personal message to M0p94ok
03:48
21
Нет комментариев. Ваш будет первым!