Поиск

(Soul Jazz / Vocal Jazz) Jose James - The Dreamer - 2008, FLAC (tracks+.cue), lossless

(Soul Jazz / Vocal Jazz) Jose James - The Dreamer - 2008, FLAC (tracks+.cue), lossless
Треклист:
Jose James - The Dreamer
Жанр: Soul Jazz / Vocal Jazz
Год выпуска : 2008
Лейбл: Brownswood Recordings
Аудио кодек: FLAC
Тип рипа: tracks+.cue
Битрейт аудио: lossless
Продолжительность: 00:56:20
Рип: IONBRAIN - What CD


01. The Dreamer (7:05)
02. Velvet (4:01)
03. Blackeyedsusan (4:57)
04. Park Bench People (6:03)
05. Spirits Up Above (5:01)
06. Nola (3:56)
07. Red (5:16)
08. Winter Wind (7:07)
09. Desire (7:29)
10. Love (5:24)

 
EAC
Exact Audio Copy V0.99 prebeta 4 from 23. January 2008
EAC extraction logfile from 23. September 2009, 18:06
Jose James / The Dreamer
Used drive : TSSTcorpDVD-ROM SH-D163A Adapter: 3 ID: 0
Read mode : Secure
Utilize accurate stream : Yes
Defeat audio cache : Yes
Make use of C2 pointers : No
Read offset correction : 6
Overread into Lead-In and Lead-Out : No
Fill up missing offset samples with silence : Yes
Delete leading and trailing silent blocks : No
Null samples used in CRC calculations : Yes
Used interface : Native Win32 interface for Win NT & 2000
Gap handling : Appended to previous track
Used output format : User Defined Encoder
Selected bitrate : 192 kBit/s
Quality : High
Add ID3 tag : No
Command line compressor : C:\Program Files\FLAC\flac.exe
Additional command line options : -V -8 -T "artist=%a" -T "title=%t" -T "album=%g" -T "date=%y" -T "tracknumber=%n" -T "genre=%m" %s
TOC of the extracted CD
Track | Start | Length | Start sector | End sector
---------------------------------------------------------
1 | 0:00.00 | 7:05.21 | 0 | 31895
2 | 7:05.21 | 4:01.35 | 31896 | 50005
3 | 11:06.56 | 4:56.59 | 50006 | 72264
4 | 16:03.40 | 6:03.24 | 72265 | 99513
5 | 22:06.64 | 5:00.52 | 99514 | 122065
6 | 27:07.41 | 3:56.13 | 122066 | 139778
7 | 31:03.54 | 5:15.68 | 139779 | 163471
8 | 36:19.47 | 7:07.25 | 163472 | 195521
9 | 43:26.72 | 7:29.20 | 195522 | 229216
10 | 50:56.17 | 5:24.01 | 229217 | 253517
Track 1
Filename D:\MP3\02_WaveCD\00_My_Uploads\Jose James - The Dreamer FLAC\01 - The Dreamer.wav
Pre-gap length 0:00:02.00
Peak level 99.8 %
Track quality 100.0 %
Test CRC 0BAA08D1
Copy CRC 0BAA08D1
Copy OK
Track 2
Filename D:\MP3\02_WaveCD\00_My_Uploads\Jose James - The Dreamer FLAC\02 - Velvet.wav
Pre-gap length 0:00:02.70
Peak level 99.4 %
Track quality 100.0 %
Test CRC AC9881AB
Copy CRC AC9881AB
Copy OK
Track 3
Filename D:\MP3\02_WaveCD\00_My_Uploads\Jose James - The Dreamer FLAC\03 - Blackeyedsusan.wav
Pre-gap length 0:00:02.40
Peak level 98.8 %
Track quality 100.0 %
Test CRC 3F81066E
Copy CRC 3F81066E
Copy OK
Track 4
Filename D:\MP3\02_WaveCD\00_My_Uploads\Jose James - The Dreamer FLAC\04 - Park Bench People.wav
Pre-gap length 0:00:03.00
Peak level 98.8 %
Track quality 100.0 %
Test CRC F0200397
Copy CRC F0200397
Copy OK
Track 5
Filename D:\MP3\02_WaveCD\00_My_Uploads\Jose James - The Dreamer FLAC\05 - Spirits Up Above.wav
Pre-gap length 0:00:03.00
Peak level 99.8 %
Track quality 100.0 %
Test CRC 6B8DF269
Copy CRC 6B8DF269
Copy OK
Track 6
Filename D:\MP3\02_WaveCD\00_My_Uploads\Jose James - The Dreamer FLAC\06 - Nola.wav
Pre-gap length 0:00:03.00
Peak level 98.8 %
Track quality 100.0 %
Test CRC FFA49A2D
Copy CRC FFA49A2D
Copy OK
Track 7
Filename D:\MP3\02_WaveCD\00_My_Uploads\Jose James - The Dreamer FLAC\07 - Red.wav
Pre-gap length 0:00:03.05
Peak level 98.8 %
Track quality 100.0 %
Test CRC 24E0E3F2
Copy CRC 24E0E3F2
Copy OK
Track 8
Filename D:\MP3\02_WaveCD\00_My_Uploads\Jose James - The Dreamer FLAC\08 - Winter Wind.wav
Pre-gap length 0:00:02.40
Peak level 99.5 %
Track quality 99.9 %
Test CRC B2110FAF
Copy CRC B2110FAF
Copy OK
Track 9
Filename D:\MP3\02_WaveCD\00_My_Uploads\Jose James - The Dreamer FLAC\09 - Desire.wav
Pre-gap length 0:00:03.00
Peak level 99.7 %
Track quality 99.9 %
Test CRC C586A29F
Copy CRC C586A29F
Copy OK
Track 10
Filename D:\MP3\02_WaveCD\00_My_Uploads\Jose James - The Dreamer FLAC\10 - Love.wav
Pre-gap length 0:00:02.40
Peak level 95.6 %
Track quality 100.0 %
Test CRC 6B38440C
Copy CRC 6B38440C
Copy OK
No errors occurred
End of status report
 
CUE
REM GENRE Soul
REM DATE 2008
REM DISCID 970D340A
REM COMMENT "ExactAudioCopy v0.99pb4"
PERFORMER "Jose James"
TITLE "The Dreamer"
FILE "01 - The Dreamer.wav" WAVE
TRACK 01 AUDIO
TITLE "The Dreamer"
PERFORMER "Jose James"
INDEX 01 00:00:00
TRACK 02 AUDIO
TITLE "Velvet"
PERFORMER "Jose James"
INDEX 00 07:02:43
FILE "02 - Velvet.wav" WAVE
INDEX 01 00:00:00
TRACK 03 AUDIO
TITLE "Blackeyedsusan"
PERFORMER "Jose James"
INDEX 00 03:59:05
FILE "03 - Blackeyedsusan.wav" WAVE
INDEX 01 00:00:00
TRACK 04 AUDIO
TITLE "Park Bench People"
PERFORMER "Jose James"
INDEX 00 04:53:59
FILE "04 - Park Bench People.wav" WAVE
INDEX 01 00:00:00
TRACK 05 AUDIO
TITLE "Spirits Up Above"
PERFORMER "Jose James"
INDEX 00 06:00:24
FILE "05 - Spirits Up Above.wav" WAVE
INDEX 01 00:00:00
TRACK 06 AUDIO
TITLE "Nola"
PERFORMER "Jose James"
INDEX 00 04:57:52
FILE "06 - Nola.wav" WAVE
INDEX 01 00:00:00
TRACK 07 AUDIO
TITLE "Red"
PERFORMER "Jose James"
INDEX 00 03:53:09
FILE "07 - Red.wav" WAVE
INDEX 01 00:00:00
TRACK 08 AUDIO
TITLE "Winter Wind"
PERFORMER "Jose James"
INDEX 00 05:13:38
FILE "08 - Winter Wind.wav" WAVE
INDEX 01 00:00:00
TRACK 09 AUDIO
TITLE "Desire"
PERFORMER "Jose James"
INDEX 00 07:04:25
FILE "09 - Desire.wav" WAVE
INDEX 01 00:00:00
TRACK 10 AUDIO
TITLE "Love"
PERFORMER "Jose James"
INDEX 00 07:26:65
FILE "10 - Love.wav" WAVE
INDEX 01 00:00:00
 
Audiochecker
Started at: суббота, 27. 02. 2010. - 1:14.23
10 files found
01 -===- C:\Downloads\Music\Джаз\Jose James - The Dreamer - 2008\01 - The Dreamer.flac
Extracted successfully
Conclusion: This track looks like CDDA with probability 100%
Tempfile successfully deleted.
02 -===- C:\Downloads\Music\Джаз\Jose James - The Dreamer - 2008\02 - Velvet.flac
Extracted successfully
Conclusion: This track looks like MPEG with probability 95%
Tempfile successfully deleted.
03 -===- C:\Downloads\Music\Джаз\Jose James - The Dreamer - 2008\03 - Blackeyedsusan.flac
Extracted successfully
Conclusion: This track looks like CDDA with probability 100%
Tempfile successfully deleted.
04 -===- C:\Downloads\Music\Джаз\Jose James - The Dreamer - 2008\04 - Park Bench People.flac
Extracted successfully
Conclusion: This track looks like CDDA with probability 100%
Tempfile successfully deleted.
05 -===- C:\Downloads\Music\Джаз\Jose James - The Dreamer - 2008\05 - Spirits Up Above.flac
Extracted successfully
Conclusion: This track looks like MPEG with probability 95%
Tempfile successfully deleted.
06 -===- C:\Downloads\Music\Джаз\Jose James - The Dreamer - 2008\06 - Nola.flac
Extracted successfully
Conclusion: This track looks like CDDA with probability 99%
Tempfile successfully deleted.
07 -===- C:\Downloads\Music\Джаз\Jose James - The Dreamer - 2008\07 - Red.flac
Extracted successfully
Conclusion: This track looks like CDDA with probability 100%
Tempfile successfully deleted.
08 -===- C:\Downloads\Music\Джаз\Jose James - The Dreamer - 2008\08 - Winter Wind.flac
Extracted successfully
Conclusion: This track looks like CDDA with probability 100%
Tempfile successfully deleted.
09 -===- C:\Downloads\Music\Джаз\Jose James - The Dreamer - 2008\09 - Desire.flac
Extracted successfully
Conclusion: This track looks like CDDA with probability 99%
Tempfile successfully deleted.
10 -===- C:\Downloads\Music\Джаз\Jose James - The Dreamer - 2008\10 - Love.flac
Extracted successfully
Conclusion: This track looks like MPEG with probability 95%
Tempfile successfully deleted.
Finished at: суббота, 27. 02. 2010. - 1:24.57 (operation time: 0:10.33)
Приватный:
Нет (DHT включён)
Размер:
320.21 Мб (335,765,251 байт) » файлов: 14
Участники:
0 раздают, 0 качают (0 участников всего)
Внешние участники:
--- [ Обновить ]
Никого нет на раздаче - пишите личное сообщение M0p94ok
No seeders - write personal message to M0p94ok
02:45
38
Нет комментариев. Ваш будет первым!