Поиск

(R&B, Funk, Soul) James Brown - Funky President (The Very Best Of Vol. 2) - 1993, FLAC (tracks+.cue), lossless

(R&B, Funk, Soul) James Brown - Funky President (The Very Best Of Vol. 2) - 1993, FLAC (tracks+.cue), lossless
Треклист:
James Brown - Funky President (The Very Best Of Vol. 2)
Жанр: R&B, Funk, Soul
Год выпуска диска: 1993
Производитель диска: Polydor
Аудио кодек: FLAC
Тип рипа: tracks+.cue
Происхождение рипа: из сети (H33T alekow)
Битрейт аудио: lossless
Продолжительность: 01:16:47
Трэклист:
01. Funky President (People It's Bad)
02. Try Me
03. My Thang
04. Body Heat
05. Talking Loud And Saying Nothing
06. There Was A Time (Live)
07. Doing It To Death
08. The Payback
09. Soul Power (Parts 1 & 2)
10. I Got The Feeling
11. Honky Tonk (Part 1)
12. Get Up, Get Into It, And Get Involved
13. I Got Ants In My Pants (Part 1)
14. Funky Drummer
15. It's A New Day
 
Отчёт EAC
Exact Audio Copy V0.99 prebeta 5 from 4. May 2009
EAC extraction logfile from 30. January 2010, 0:32
James Brown / Funky President (The Very Best Of Vol. 2)
Used drive : HL-DT-STDVD-RAM GH22NP20 Adapter: 1 ID: 1
Read mode : Secure
Utilize accurate stream : Yes
Defeat audio cache : Yes
Make use of C2 pointers : No
Read offset correction : 102
Overread into Lead-In and Lead-Out : No
Fill up missing offset samples with silence : Yes
Delete leading and trailing silent blocks : No
Null samples used in CRC calculations : Yes
Used interface : Installed external ASPI interface
Gap handling : Appended to previous track
Used output format : User Defined Encoder
Selected bitrate : 1024 kBit/s
Quality : High
Add ID3 tag : No
Command line compressor : C:\Program Files\Exact Audio Copy\FLAC\FLAC.EXE
Additional command line options : -3 -V -T "ARTIST=%a" -T "TITLE=%t" -T "ALBUM=%g" -T "DATE=%y" -T "TRACKNUMBER=%n" -T "GENRE=%m" -T "COMMENT=%e" %s -o %d
Use compression offset : 48
TOC of the extracted CD
Track | Start | Length | Start sector | End sector
---------------------------------------------------------
1 | 0:00.33 | 4:00.27 | 33 | 18059
2 | 4:00.60 | 2:33.20 | 18060 | 29554
3 | 6:34.05 | 4:24.05 | 29555 | 49359
4 | 10:58.10 | 4:32.00 | 49360 | 69759
5 | 15:30.10 | 7:48.33 | 69760 | 104892
6 | 23:18.43 | 5:02.10 | 104893 | 127552
7 | 28:20.53 | 5:24.30 | 127553 | 151882
8 | 33:45.08 | 7:29.72 | 151883 | 185629
9 | 41:15.05 | 6:04.30 | 185630 | 212959
10 | 47:19.35 | 2:39.25 | 212960 | 224909
11 | 49:58.60 | 3:07.28 | 224910 | 238962
12 | 53:06.13 | 7:10.67 | 238963 | 271279
13 | 60:17.05 | 3:04.38 | 271280 | 285117
14 | 63:21.43 | 7:02.55 | 285118 | 316822
15 | 70:24.23 | 6:21.47 | 316823 | 345444
Track 1
Filename C:\New Folder\01. Funky President (People It's Bad).wav
Pre-gap length 0:00:02.33
Peak level 97.5 %
Track quality 100.0 %
Copy CRC D6FA64B9
Accurately ripped (confidence 4) [6ABEE877]
Copy OK
Track 2
Filename C:\New Folder\02. Try Me.wav
Pre-gap length 0:00:02.26
Peak level 81.3 %
Track quality 100.0 %
Copy CRC 7978F86D
Accurately ripped (confidence 4) [A6019394]
Copy OK
Track 3
Filename C:\New Folder\03. My Thang.wav
Pre-gap length 0:00:02.21
Peak level 98.4 %
Track quality 100.0 %
Copy CRC 2F6969C9
Accurately ripped (confidence 4) [D5E96F39]
Copy OK
Track 4
Filename C:\New Folder\04. Body Heat.wav
Pre-gap length 0:00:02.26
Peak level 93.1 %
Track quality 100.0 %
Copy CRC 67CFDC4E
Accurately ripped (confidence 4) [400F25C9]
Copy OK
Track 5
Filename C:\New Folder\05. Talking Loud And Saying Nothing.wav
Pre-gap length 0:00:01.23
Peak level 93.0 %
Track quality 100.0 %
Copy CRC F53A8C8F
Accurately ripped (confidence 4) [5F081FEA]
Copy OK
Track 6
Filename C:\New Folder\06. There Was A Time (Live).wav
Pre-gap length 0:00:02.22
Peak level 84.1 %
Track quality 100.0 %
Copy CRC 7A40099F
Accurately ripped (confidence 4) [E171E9E6]
Copy OK
Track 7
Filename C:\New Folder\07. Doing It To Death.wav
Pre-gap length 0:00:03.00
Peak level 93.3 %
Track quality 99.9 %
Copy CRC 94310DE5
Accurately ripped (confidence 4) [0DF2D703]
Copy OK
Track 8
Filename C:\New Folder\08. The Payback.wav
Pre-gap length 0:00:02.13
Peak level 100.0 %
Track quality 99.9 %
Copy CRC 7952D225
Accurately ripped (confidence 4) [A58EC518]
Copy OK
Track 9
Filename C:\New Folder\09. Soul Power (Parts 1 & 2).wav
Pre-gap length 0:00:02.38
Peak level 91.1 %
Track quality 100.0 %
Copy CRC 8497F2EC
Accurately ripped (confidence 4) [0D02FDDB]
Copy OK
Track 10
Filename C:\New Folder\10. I Got The Feeling.wav
Pre-gap length 0:00:02.31
Peak level 95.5 %
Track quality 100.0 %
Copy CRC EA8FD458
Accurately ripped (confidence 4) [2D79B133]
Copy OK
Track 11
Filename C:\New Folder\11. Honky Tonk (Part 1).wav
Pre-gap length 0:00:01.43
Peak level 89.5 %
Track quality 100.0 %
Copy CRC CFD7B889
Accurately ripped (confidence 4) [DA238036]
Copy OK
Track 12
Filename C:\New Folder\12. Get Up, Get Into It, And Get Involved.wav
Pre-gap length 0:00:02.09
Peak level 83.0 %
Track quality 100.0 %
Copy CRC E8E05FDA
Accurately ripped (confidence 3) [4B560C98]
Copy OK
Track 13
Filename C:\New Folder\13. I Got Ants In My Pants (Part 1).wav
Pre-gap length 0:00:02.18
Peak level 96.7 %
Track quality 100.0 %
Copy CRC 16C23C28
Accurately ripped (confidence 3) [AC060F79]
Copy OK
Track 14
Filename C:\New Folder\14. Funky Drummer.wav
Pre-gap length 0:00:02.07
Peak level 89.1 %
Track quality 99.9 %
Copy CRC A83760FA
Accurately ripped (confidence 4) [F3640F6C]
Copy OK
Track 15
Filename C:\New Folder\15. It's A New Day.wav
Pre-gap length 0:00:01.50
Peak level 100.0 %
Track quality 100.0 %
Copy CRC A466FDDA
Accurately ripped (confidence 3) [D648F713]
Copy OK
All tracks accurately ripped
No errors occurred
End of status report
 
.CUE
REM GENRE Funk
REM DATE 1993
REM DISCID B911FD0F
REM COMMENT "ExactAudioCopy v0.99pb5"
PERFORMER "James Brown"
TITLE "Funky President (The Very Best Of Vol. 2)"
FILE "01. Funky President (People It's Bad).wav" WAVE
TRACK 01 AUDIO
TITLE "Funky President (People It's Bad)"
PERFORMER "James Brown"
PREGAP 00:00:33
INDEX 01 00:00:00
TRACK 02 AUDIO
TITLE "Try Me"
PERFORMER "James Brown"
INDEX 00 03:58:01
FILE "02. Try Me.wav" WAVE
INDEX 01 00:00:00
TRACK 03 AUDIO
TITLE "My Thang"
PERFORMER "James Brown"
INDEX 00 02:30:74
FILE "03. My Thang.wav" WAVE
INDEX 01 00:00:00
TRACK 04 AUDIO
TITLE "Body Heat"
PERFORMER "James Brown"
INDEX 00 04:21:54
FILE "04. Body Heat.wav" WAVE
INDEX 01 00:00:00
TRACK 05 AUDIO
TITLE "Talking Loud And Saying Nothing"
PERFORMER "James Brown"
INDEX 00 04:30:52
FILE "05. Talking Loud And Saying Nothing.wav" WAVE
INDEX 01 00:00:00
TRACK 06 AUDIO
TITLE "There Was A Time (Live)"
PERFORMER "James Brown"
INDEX 00 07:46:11
FILE "06. There Was A Time (Live).wav" WAVE
INDEX 01 00:00:00
TRACK 07 AUDIO
TITLE "Doing It To Death"
PERFORMER "James Brown"
INDEX 00 04:59:10
FILE "07. Doing It To Death.wav" WAVE
INDEX 01 00:00:00
TRACK 08 AUDIO
TITLE "The Payback"
PERFORMER "James Brown"
INDEX 00 05:22:17
FILE "08. The Payback.wav" WAVE
INDEX 01 00:00:00
TRACK 09 AUDIO
TITLE "Soul Power (Parts 1 & 2)"
PERFORMER "James Brown"
INDEX 00 07:27:34
FILE "09. Soul Power (Parts 1 & 2).wav" WAVE
INDEX 01 00:00:00
TRACK 10 AUDIO
TITLE "I Got The Feeling"
PERFORMER "James Brown"
INDEX 00 06:01:74
FILE "10. I Got The Feeling.wav" WAVE
INDEX 01 00:00:00
TRACK 11 AUDIO
TITLE "Honky Tonk (Part 1)"
PERFORMER "James Brown"
INDEX 00 02:37:57
FILE "11. Honky Tonk (Part 1).wav" WAVE
INDEX 01 00:00:00
TRACK 12 AUDIO
TITLE "Get Up, Get Into It, And Get Involved"
PERFORMER "James Brown"
INDEX 00 03:05:19
FILE "12. Get Up, Get Into It, And Get Involved.wav" WAVE
INDEX 01 00:00:00
TRACK 13 AUDIO
TITLE "I Got Ants In My Pants (Part 1)"
PERFORMER "James Brown"
INDEX 00 07:08:49
FILE "13. I Got Ants In My Pants (Part 1).wav" WAVE
INDEX 01 00:00:00
TRACK 14 AUDIO
TITLE "Funky Drummer"
PERFORMER "James Brown"
INDEX 00 03:02:31
FILE "14. Funky Drummer.wav" WAVE
INDEX 01 00:00:00
TRACK 15 AUDIO
TITLE "It's A New Day"
PERFORMER "James Brown"
INDEX 00 07:01:05
FILE "15. It's A New Day.wav" WAVE
INDEX 01 00:00:00
 
Audiochecker log
AUDIOCHECKER v2.0 beta (build 457) - by Dester - opdester@freemail.hu
~~~~~~~~~~~~~~~~~~~~~~~~~~~~~~~~~~
Started at: giovedì, 25. 02. 2010. - 23.20.31
15 files found
01 -===- D:\Musica\James Brown - Funky President (The Very Best Of Vol. 2)\01. Funky President (People It's Bad).flac
Extracted successfully
Conclusion: this track is CDDA with probability 100%
Tempfile successfully deleted.
02 -===- D:\Musica\James Brown - Funky President (The Very Best Of Vol. 2)\02. Try Me.flac
Extracted successfully
Conclusion: this track is CDDA with probability 100%
Tempfile successfully deleted.
03 -===- D:\Musica\James Brown - Funky President (The Very Best Of Vol. 2)\03. My Thang.flac
Extracted successfully
Conclusion: this track is CDDA with probability 100%
Tempfile successfully deleted.
04 -===- D:\Musica\James Brown - Funky President (The Very Best Of Vol. 2)\04. Body Heat.flac
Extracted successfully
Conclusion: this track is CDDA with probability 100%
Tempfile successfully deleted.
05 -===- D:\Musica\James Brown - Funky President (The Very Best Of Vol. 2)\05. Talking Loud And Saying Nothing.flac
Extracted successfully
Conclusion: this track is CDDA with probability 100%
Tempfile successfully deleted.
06 -===- D:\Musica\James Brown - Funky President (The Very Best Of Vol. 2)\06. There Was A Time (Live).flac
Extracted successfully
Conclusion: this track is CDDA with probability 100%
Tempfile successfully deleted.
07 -===- D:\Musica\James Brown - Funky President (The Very Best Of Vol. 2)\07. Doing It To Death.flac
Extracted successfully
Conclusion: this track is CDDA with probability 100%
Tempfile successfully deleted.
08 -===- D:\Musica\James Brown - Funky President (The Very Best Of Vol. 2)\08. The Payback.flac
Extracted successfully
Conclusion: this track is CDDA with probability 100%
Tempfile successfully deleted.
09 -===- D:\Musica\James Brown - Funky President (The Very Best Of Vol. 2)\09. Soul Power (Parts 1 & 2).flac
Extracted successfully
Conclusion: this track is CDDA with probability 100%
Tempfile successfully deleted.
10 -===- D:\Musica\James Brown - Funky President (The Very Best Of Vol. 2)\10. I Got The Feeling.flac
Extracted successfully
Conclusion: this track is CDDA with probability 100%
Tempfile successfully deleted.
11 -===- D:\Musica\James Brown - Funky President (The Very Best Of Vol. 2)\11. Honky Tonk (Part 1).flac
Extracted successfully
Conclusion: this track is CDDA with probability 99%
Tempfile successfully deleted.
12 -===- D:\Musica\James Brown - Funky President (The Very Best Of Vol. 2)\12. Get Up, Get Into It, And Get Involved.flac
Extracted successfully
Conclusion: this track is CDDA with probability 100%
Tempfile successfully deleted.
13 -===- D:\Musica\James Brown - Funky President (The Very Best Of Vol. 2)\13. I Got Ants In My Pants (Part 1).flac
Extracted successfully
Conclusion: this track is CDDA with probability 100%
Tempfile successfully deleted.
14 -===- D:\Musica\James Brown - Funky President (The Very Best Of Vol. 2)\14. Funky Drummer.flac
Extracted successfully
Conclusion: this track is CDDA with probability 99%
Tempfile successfully deleted.
15 -===- D:\Musica\James Brown - Funky President (The Very Best Of Vol. 2)\15. It's A New Day.flac
Extracted successfully
Conclusion: this track is MPEG with probability 95%
Tempfile successfully deleted.
Finished at: giovedì, 25. 02. 2010. - 23.26.23 (operation time: 0.05.52)
Приватный:
Нет (DHT включён)
Размер:
488.91 Мб (512,658,933 байт) » файлов: 23
Участники:
0 раздают, 0 качают (0 участников всего)
Внешние участники:
1 раздают, 0 качают (1 участников всего) [ Обновить ]
Нет сидеров - пишите личное сообщение M0p94ok. Не нравятся торренты? Участники группы Pro-jazz Club могут заказать прямую ссылку на скачивание из облака.
No seeders - write a personal message to M0p94ok. Don't like torrents? Members of Pro-jazz Club group can order a direct download link from the cloud.
02:44
24
Нет комментариев. Ваш будет первым!