Поиск

(Jazz-Funk,Soul) Santa Fe And The Fat City Horns-When The Curtain Goes Up - 2010, APE (image+.cue), lossless

(Jazz-Funk,Soul) Santa Fe And The Fat City Horns-When The Curtain Goes Up - 2010, APE (image+.cue), lossless
Треклист:
Santa Fe And The Fat City Horns-When The Curtain Goes Up
Жанр: Jazz-Funk,Soul
Год выпуска диска: 2010
Производитель диска: USA
Аудио кодек: APE
Тип рипа: image+.cue
Битрейт аудио: lossless
Продолжительность: 01:00:29
Трэклист:
1.When The Curtain Goes Up
2.Indian Summer Day
3.Dat Greazy Thang
4.Si Te Vas
5.Into The Light
6.My Land Of The Sun
7.Love Jungle
8.This Time
9.Wishing Well
10.I'LL Pack It Up
Доп. информация: Jerry Lopez-guitar,banjo & vocals,Dony Davich-vocal,Gabriel Falcone-percussio,
Danny Falcone-trumpet & flugelhorn,Jamie Hosmer-B-3 organ,Jose'Pepe'Jimenez-drum& percussion,
Tyriq Johnson-vocal,Gil Kaupp-trumpet & flugelhorn,Lenny Lopez-percussion & vocal,Rob Mader-tenor sax,flute & clarinet,Jerry Merra-baritone sax & flute,
Dave Richardson-piano,B-3 organ & keyboards,Nathan Tanouye-trombone,Rochon Westmoreland-bass,Phil Wigfall-alto sax & flute.
Special Guests:
Cat Grey-keyboards & guitar
Mike Gonzales-keyboards BG Vocal
Abe La Marca-BG Vocal
Рип из личного архива.
 
Отчёт EAC
Exact Audio Copy V0.99 prebeta 4 from 23. January 2008
Отчёт EAC об извлечении, выполненном 26. октября 2001, 0:34
Santa Fe and the Fat City Horns / When the Curtain Goes Up
Дисковод: _NEC DVD_RW ND-2510A Adapter: 1 ID: 0
Режим чтения : Достоверность
Использование точного потока : Да
Отключение кэша аудио : Да
Использование указателей C2 : Нет
Коррекция смещения при чтении : 48
Способность читать области Lead-in и Lead-out : Нет
Заполнение пропущенных сэмплов тишиной : Да
Удаление блоков с тишиной в начале и конце : Нет
При вычислениях CRC использовались нулевые сэмплы : Да
Интерфейс : Установленный внешний ASPI-интерфейс
Выходной формат : Внутренние WAV-операции
Формат сэмплов : 44.100 Гц; 16 бит; стерео
TOC извлечённого CD
Трек | Старт | Длительность | Начальный сектор | Конечный сектор
---------------------------------------------------------------------
1 | 0:00.00 | 5:25.34 | 0 | 24408
2 | 5:25.34 | 6:24.70 | 24409 | 53278
3 | 11:50.29 | 7:14.71 | 53279 | 85899
4 | 19:05.25 | 7:22.16 | 85900 | 119065
5 | 26:27.41 | 4:46.09 | 119066 | 140524
6 | 31:13.50 | 7:00.28 | 140525 | 172052
7 | 38:14.03 | 4:19.31 | 172053 | 191508
8 | 42:33.34 | 7:19.33 | 191509 | 224466
9 | 49:52.67 | 6:04.19 | 224467 | 251785
10 | 55:57.11 | 4:31.55 | 251786 | 272165
Характеристики диапазона извлечения и сообщения об ошибках
Выбранный диапазон
Имя файла E:\ПРОЕКТ\Santa fe And The Fan City Horns 2010\Santa Fe and the Fat City Horns - When the Curtain Goes Up.wav
Пиковый уровень 99.7 %
Качество диапазона 100.0 %
CRC теста A8E609E1
CRC копии A8E609E1
Копирование... OK
Ошибок не произошло
AccurateRip: сводка
Трек 1 нет в базе данных
Трек 2 нет в базе данных
Трек 3 нет в базе данных
Трек 4 нет в базе данных
Трек 5 нет в базе данных
Трек 6 нет в базе данных
Трек 7 нет в базе данных
Трек 8 нет в базе данных
Трек 9 нет в базе данных
Трек 10 нет в базе данных
Ни одного трека нет в базе AccurateRip
Конец отчёта
Приватный:
Нет (DHT включён)
Размер:
382.15 Мб (400,716,043 байт) » файлов: 3
Участники:
0 раздают, 0 качают (0 участников всего)
Внешние участники:
1 раздают, 0 качают (1 участников всего) [ Обновить ]
Нет сидеров - пишите личное сообщение M0p94ok. Не нравятся торренты? Участники группы Pro-jazz Club могут заказать прямую ссылку на скачивание из облака.
No seeders - write a personal message to M0p94ok. Don't like torrents? Members of Pro-jazz Club group can order a direct download link from the cloud.
02:44
29
Нет комментариев. Ваш будет первым!