Поиск

(Soul/Funk) Earth, Wind & Fire - The Essential Earth, Wind & Fire (Original Recording Remastered)-2002, FLAC (tracks+.cue), lossless

(Soul/Funk) Earth, Wind & Fire - The Essential Earth, Wind & Fire (Original Recording Remastered)-2002, FLAC (tracks+.cue), lossless
Треклист:
Earth, Wind & Fire - The Essential Earth, Wind & Fire (Original Recording Remastered)
Жанр: Soul/Funk
Год выпуска диска: 2002
Производитель диска: USA
Аудио кодек: FLAC
Тип рипа: tracks+.cue
Битрейт аудио: lossless
Продолжительность: 02:32:42
Трэклист:
Disc 1
01 - September
02 - Serpentine Fire
03 - Fantasy
04 - I'll Write A Song For You
05 - Drum Song
06 - In The Stone
07 - Can't Let Go
08 - After The Love Has Gone
09 - Wait
10 - You And I
11 - Let Me Talk
12 - And Love Goes On
13 - You
14 - Let's Groove
15 - Fall In Love With Me
16 - Side By Side
17 - Boogie Wonderland (With The Emotions)
Disc 2
01 - Mighty Mighty
02 - Evil
03 - Devotion
04 - Keep Your Head To The Sky
05 - Kalimba Story
06 - Shining Star
07 - That's The Way Of The World
08 - Yearnin' Learnin'
09 - All About Love
10 - Reasons
11 - Sing A Song
12 - Can't Hide Love
13 - Getaway
14 - Saturday Nite
15 - Ponta De Areia (Brazilian Rhyme)/Be Ever Wonderful
16 - Open Our Eyes
17 - Got To Get You Into My Life
 
Disc 1 EAC log
Exact Audio Copy V0.99 prebeta 4 from 23. January 2008
EAC extraction logfile from 30. March 2009, 19:41
Earth, Wind & Fire / The Essential
Used drive : PIONEER DVD-RW DVR-112D Adapter: 0 ID: 0
Read mode : Secure
Utilize accurate stream : Yes
Defeat audio cache : Yes
Make use of C2 pointers : No
Read offset correction : 48
Overread into Lead-In and Lead-Out : No
Fill up missing offset samples with silence : Yes
Delete leading and trailing silent blocks : No
Null samples used in CRC calculations : No
Used interface : Native Win32 interface for Win NT & 2000
Gap handling : Appended to previous track
Used output format : Internal WAV Routines
Sample format : 44.100 Hz; 16 Bit; Stereo
TOC of the extracted CD
Track | Start | Length | Start sector | End sector
---------------------------------------------------------
1 | 0:00.00 | 3:35.30 | 0 | 16154
2 | 3:35.30 | 3:50.22 | 16155 | 33426
3 | 7:25.52 | 4:36.45 | 33427 | 54171
4 | 12:02.22 | 5:22.25 | 54172 | 78346
5 | 17:24.47 | 5:09.00 | 78347 | 101521
6 | 22:33.47 | 4:25.18 | 101522 | 121414
7 | 26:58.65 | 3:28.52 | 121415 | 137066
8 | 30:27.42 | 4:25.43 | 137067 | 156984
9 | 34:53.10 | 3:39.17 | 156985 | 173426
10 | 38:32.27 | 3:31.40 | 173427 | 189291
11 | 42:03.67 | 4:08.18 | 189292 | 207909
12 | 46:12.10 | 4:04.22 | 207910 | 226231
13 | 50:16.32 | 5:30.33 | 226232 | 251014
14 | 55:46.65 | 5:32.07 | 251015 | 275921
15 | 61:18.72 | 5:49.53 | 275922 | 302149
16 | 67:08.50 | 5:31.65 | 302150 | 327039
17 | 72:40.40 | 4:48.30 | 327040 | 348669
Track 1
Filename D:\0001 - torrentsss\2002 Earth, Wind & Fire-The Essential\2002 Earth, Wind & Fire-The Essential (CD 1)\01-Earth, Wind & Fire-September.wav
Pre-gap length 0:00:02.00
Peak level 84.0 %
Track quality 100.0 %
Test CRC 7746CF17
Copy CRC 7746CF17
Accurately ripped (confidence 4) [8CEFC5EF]
Copy OK
Track 2
Filename D:\0001 - torrentsss\2002 Earth, Wind & Fire-The Essential\2002 Earth, Wind & Fire-The Essential (CD 1)\02-Earth, Wind & Fire-Serpentine Fire.wav
Pre-gap length 0:00:00.02
Peak level 74.8 %
Track quality 100.0 %
Test CRC 006646B0
Copy CRC 006646B0
Accurately ripped (confidence 5) [0DB592FF]
Copy OK
Track 3
Filename D:\0001 - torrentsss\2002 Earth, Wind & Fire-The Essential\2002 Earth, Wind & Fire-The Essential (CD 1)\03-Earth, Wind & Fire-Fantasy.wav
Peak level 74.7 %
Track quality 99.9 %
Test CRC 65D688EA
Copy CRC 65D688EA
Accurately ripped (confidence 5) [217D8C97]
Copy OK
Track 4
Filename D:\0001 - torrentsss\2002 Earth, Wind & Fire-The Essential\2002 Earth, Wind & Fire-The Essential (CD 1)\04-Earth, Wind & Fire-I'll Write A Song For You.wav
Pre-gap length 0:00:00.01
Peak level 79.1 %
Track quality 100.0 %
Test CRC C32843C9
Copy CRC C32843C9
Accurately ripped (confidence 5) [0982A1B1]
Copy OK
Track 5
Filename D:\0001 - torrentsss\2002 Earth, Wind & Fire-The Essential\2002 Earth, Wind & Fire-The Essential (CD 1)\05-Earth, Wind & Fire-Drum Song.wav
Peak level 84.0 %
Track quality 100.0 %
Test CRC 70A881ED
Copy CRC 70A881ED
Accurately ripped (confidence 5) [D82D84F3]
Copy OK
Track 6
Filename D:\0001 - torrentsss\2002 Earth, Wind & Fire-The Essential\2002 Earth, Wind & Fire-The Essential (CD 1)\06-Earth, Wind & Fire-In The Stone.wav
Peak level 84.0 %
Track quality 100.0 %
Test CRC 3590B008
Copy CRC 3590B008
Accurately ripped (confidence 5) [F6169478]
Copy OK
Track 7
Filename D:\0001 - torrentsss\2002 Earth, Wind & Fire-The Essential\2002 Earth, Wind & Fire-The Essential (CD 1)\07-Earth, Wind & Fire-Can't Let Go.wav
Peak level 84.0 %
Track quality 100.0 %
Test CRC 95152F50
Copy CRC 95152F50
Accurately ripped (confidence 5) [BFEA8C00]
Copy OK
Track 8
Filename D:\0001 - torrentsss\2002 Earth, Wind & Fire-The Essential\2002 Earth, Wind & Fire-The Essential (CD 1)\08-Earth, Wind & Fire-After The Love Has Gone.wav
Pre-gap length 0:00:00.72
Peak level 99.8 %
Track quality 100.0 %
Test CRC D6CE12F7
Copy CRC D6CE12F7
Accurately ripped (confidence 5) [F12A4A71]
Copy OK
Track 9
Filename D:\0001 - torrentsss\2002 Earth, Wind & Fire-The Essential\2002 Earth, Wind & Fire-The Essential (CD 1)\09-Earth, Wind & Fire-Wait.wav
Peak level 96.3 %
Track quality 100.0 %
Test CRC 5CFE1A7F
Copy CRC 5CFE1A7F
Accurately ripped (confidence 5) [4210D12E]
Copy OK
Track 10
Filename D:\0001 - torrentsss\2002 Earth, Wind & Fire-The Essential\2002 Earth, Wind & Fire-The Essential (CD 1)\10-Earth, Wind & Fire-You And I.wav
Peak level 89.0 %
Track quality 99.9 %
Test CRC FD8D98D3
Copy CRC FD8D98D3
Accurately ripped (confidence 5) [4BCFEC18]
Copy OK
Track 11
Filename D:\0001 - torrentsss\2002 Earth, Wind & Fire-The Essential\2002 Earth, Wind & Fire-The Essential (CD 1)\11-Earth, Wind & Fire-Let Me Talk.wav
Pre-gap length 0:00:00.03
Peak level 99.8 %
Track quality 100.0 %
Test CRC 49584B85
Copy CRC 49584B85
Accurately ripped (confidence 5) [80EF9338]
Copy OK
Track 12
Filename D:\0001 - torrentsss\2002 Earth, Wind & Fire-The Essential\2002 Earth, Wind & Fire-The Essential (CD 1)\12-Earth, Wind & Fire-And Love Goes On.wav
Peak level 94.2 %
Track quality 100.0 %
Test CRC 673249A1
Copy CRC 673249A1
Accurately ripped (confidence 5) [0D050383]
Copy OK
Track 13
Filename D:\0001 - torrentsss\2002 Earth, Wind & Fire-The Essential\2002 Earth, Wind & Fire-The Essential (CD 1)\13-Earth, Wind & Fire-You.wav
Peak level 99.9 %
Track quality 100.0 %
Test CRC 16A4682F
Copy CRC 16A4682F
Accurately ripped (confidence 5) [EEAE16F7]
Copy OK
Track 14
Filename D:\0001 - torrentsss\2002 Earth, Wind & Fire-The Essential\2002 Earth, Wind & Fire-The Essential (CD 1)\14-Earth, Wind & Fire-Let's Groove.wav
Peak level 94.2 %
Track quality 100.0 %
Test CRC 6A91BAB9
Copy CRC 6A91BAB9
Accurately ripped (confidence 5) [A6670969]
Copy OK
Track 15
Filename D:\0001 - torrentsss\2002 Earth, Wind & Fire-The Essential\2002 Earth, Wind & Fire-The Essential (CD 1)\15-Earth, Wind & Fire-Fall In Love With Me.wav
Peak level 95.4 %
Track quality 100.0 %
Test CRC D715AC47
Copy CRC D715AC47
Accurately ripped (confidence 4) [3A46EDA9]
Copy OK
Track 16
Filename D:\0001 - torrentsss\2002 Earth, Wind & Fire-The Essential\2002 Earth, Wind & Fire-The Essential (CD 1)\16-Earth, Wind & Fire-Side By Side.wav
Peak level 99.9 %
Track quality 100.0 %
Test CRC 0F38B2A0
Copy CRC 0F38B2A0
Accurately ripped (confidence 4) [F4D932E6]
Copy OK
Track 17
Filename D:\0001 - torrentsss\2002 Earth, Wind & Fire-The Essential\2002 Earth, Wind & Fire-The Essential (CD 1)\17-Earth, Wind & Fire-Boogie Wonderland (With The Emotions).wav
Peak level 99.9 %
Track quality 100.0 %
Test CRC 617C4B02
Copy CRC 617C4B02
Accurately ripped (confidence 4) [6A274CF6]
Copy OK
All tracks accurately ripped
No errors occurred
End of status report
 
Audiochecke
AUDIOCHECKER v2.0 beta (build 457) - by Dester - opdester@freemail.hu
~~~~~~~~~~~~~~~~~~~~~~~~~~~~~~~~~~
Started at: ÷åòâåðã, 25. 02. 2010. - 0:29.39
17 files found
01 -===- D:\Music\lossless\Earth, Wind & Fire-The Essential (2CD) (2002)\2002 Earth, Wind & Fire-The Essential (CD 1)\01-Earth, Wind & Fire-September.flac
Extracted successfully
Conclusion: this track is CDDA with probability 100%
Tempfile successfully deleted.
02 -===- D:\Music\lossless\Earth, Wind & Fire-The Essential (2CD) (2002)\2002 Earth, Wind & Fire-The Essential (CD 1)\02-Earth, Wind & Fire-Serpentine Fire.flac
Extracted successfully
Conclusion: this track is CDDA with probability 100%
Tempfile successfully deleted.
03 -===- D:\Music\lossless\Earth, Wind & Fire-The Essential (2CD) (2002)\2002 Earth, Wind & Fire-The Essential (CD 1)\03-Earth, Wind & Fire-Fantasy.flac
Extracted successfully
Conclusion: this track is CDDA with probability 100%
Tempfile successfully deleted.
04 -===- D:\Music\lossless\Earth, Wind & Fire-The Essential (2CD) (2002)\2002 Earth, Wind & Fire-The Essential (CD 1)\04-Earth, Wind & Fire-I'll Write A Song For You.flac
Extracted successfully
Conclusion: this track is CDDA with probability 100%
Tempfile successfully deleted.
05 -===- D:\Music\lossless\Earth, Wind & Fire-The Essential (2CD) (2002)\2002 Earth, Wind & Fire-The Essential (CD 1)\05-Earth, Wind & Fire-Drum Song.flac
Extracted successfully
Conclusion: this track is CDDA with probability 100%
Tempfile successfully deleted.
06 -===- D:\Music\lossless\Earth, Wind & Fire-The Essential (2CD) (2002)\2002 Earth, Wind & Fire-The Essential (CD 1)\06-Earth, Wind & Fire-In The Stone.flac
Extracted successfully
Conclusion: this track is CDDA with probability 76%
Tempfile successfully deleted.
07 -===- D:\Music\lossless\Earth, Wind & Fire-The Essential (2CD) (2002)\2002 Earth, Wind & Fire-The Essential (CD 1)\07-Earth, Wind & Fire-Can't Let Go.flac
Extracted successfully
Conclusion: this track is CDDA with probability 100%
Tempfile successfully deleted.
08 -===- D:\Music\lossless\Earth, Wind & Fire-The Essential (2CD) (2002)\2002 Earth, Wind & Fire-The Essential (CD 1)\08-Earth, Wind & Fire-After The Love Has Gone.flac
Extracted successfully
Conclusion: this track is CDDA with probability 100%
Tempfile successfully deleted.
09 -===- D:\Music\lossless\Earth, Wind & Fire-The Essential (2CD) (2002)\2002 Earth, Wind & Fire-The Essential (CD 1)\09-Earth, Wind & Fire-Wait.flac
Extracted successfully
Conclusion: this track is CDDA with probability 100%
Tempfile successfully deleted.
10 -===- D:\Music\lossless\Earth, Wind & Fire-The Essential (2CD) (2002)\2002 Earth, Wind & Fire-The Essential (CD 1)\10-Earth, Wind & Fire-You And I.flac
Extracted successfully
Conclusion: this track is CDDA with probability 86%
Tempfile successfully deleted.
11 -===- D:\Music\lossless\Earth, Wind & Fire-The Essential (2CD) (2002)\2002 Earth, Wind & Fire-The Essential (CD 1)\11-Earth, Wind & Fire-Let Me Talk.flac
Extracted successfully
Conclusion: this track is CDDA with probability 99%
Tempfile successfully deleted.
12 -===- D:\Music\lossless\Earth, Wind & Fire-The Essential (2CD) (2002)\2002 Earth, Wind & Fire-The Essential (CD 1)\12-Earth, Wind & Fire-And Love Goes On.flac
Extracted successfully
Conclusion: this track is CDDA with probability 100%
Tempfile successfully deleted.
13 -===- D:\Music\lossless\Earth, Wind & Fire-The Essential (2CD) (2002)\2002 Earth, Wind & Fire-The Essential (CD 1)\13-Earth, Wind & Fire-You.flac
Extracted successfully
Conclusion: this track is CDDA with probability 100%
Tempfile successfully deleted.
14 -===- D:\Music\lossless\Earth, Wind & Fire-The Essential (2CD) (2002)\2002 Earth, Wind & Fire-The Essential (CD 1)\14-Earth, Wind & Fire-Let's Groove.flac
Extracted successfully
Conclusion: this track is CDDA with probability 100%
Tempfile successfully deleted.
15 -===- D:\Music\lossless\Earth, Wind & Fire-The Essential (2CD) (2002)\2002 Earth, Wind & Fire-The Essential (CD 1)\15-Earth, Wind & Fire-Fall In Love With Me.flac
Extracted successfully
Conclusion: this track is CDDA with probability 100%
Tempfile successfully deleted.
16 -===- D:\Music\lossless\Earth, Wind & Fire-The Essential (2CD) (2002)\2002 Earth, Wind & Fire-The Essential (CD 1)\16-Earth, Wind & Fire-Side By Side.flac
Extracted successfully
Conclusion: this track is CDDA with probability 99%
Tempfile successfully deleted.
17 -===- D:\Music\lossless\Earth, Wind & Fire-The Essential (2CD) (2002)\2002 Earth, Wind & Fire-The Essential (CD 1)\17-Earth, Wind & Fire-Boogie Wonderland (With The Emotions).flac
Extracted successfully
Conclusion: this track is CDDA with probability 54%
Tempfile successfully deleted.
Finished at: ÷åòâåðã, 25. 02. 2010. - 0:49.43 (operation time: 0:20.04)
 
Disc 2 EAC log
Exact Audio Copy V0.99 prebeta 4 from 23. January 2008
EAC extraction logfile from 30. March 2009, 20:14
Earth, Wind & Fire / The Essential (CD 2)
Used drive : PIONEER DVD-RW DVR-112D Adapter: 0 ID: 0
Read mode : Secure
Utilize accurate stream : Yes
Defeat audio cache : Yes
Make use of C2 pointers : No
Read offset correction : 48
Overread into Lead-In and Lead-Out : No
Fill up missing offset samples with silence : Yes
Delete leading and trailing silent blocks : No
Null samples used in CRC calculations : No
Used interface : Native Win32 interface for Win NT & 2000
Gap handling : Appended to previous track
Used output format : Internal WAV Routines
Sample format : 44.100 Hz; 16 Bit; Stereo
TOC of the extracted CD
Track | Start | Length | Start sector | End sector
---------------------------------------------------------
1 | 0:00.00 | 3:02.60 | 0 | 13709
2 | 3:02.60 | 4:56.70 | 13710 | 35979
3 | 7:59.55 | 4:49.12 | 35980 | 57666
4 | 12:48.67 | 5:09.43 | 57667 | 80884
5 | 17:58.35 | 4:01.27 | 80885 | 98986
6 | 21:59.62 | 2:50.08 | 98987 | 111744
7 | 24:49.70 | 5:45.50 | 111745 | 137669
8 | 30:35.45 | 3:39.30 | 137670 | 154124
9 | 34:15.00 | 5:30.00 | 154125 | 178874
10 | 39:45.00 | 4:58.57 | 178875 | 201281
11 | 44:43.57 | 3:23.70 | 201282 | 216576
12 | 48:07.52 | 4:09.58 | 216577 | 235309
13 | 52:17.35 | 3:45.30 | 235310 | 252214
14 | 56:02.65 | 4:02.10 | 252215 | 270374
15 | 60:05.00 | 6:00.50 | 270375 | 297424
16 | 66:05.50 | 5:03.55 | 297425 | 320204
17 | 71:09.30 | 4:03.67 | 320205 | 338496
Track 1
Filename D:\0001 - torrentsss\2002 Earth, Wind & Fire-The Essential\2002 Earth, Wind & Fire-The Essential (CD 2)\01-Earth, Wind & Fire-Mighty Mighty.wav
Pre-gap length 0:00:02.00
Peak level 99.9 %
Track quality 100.0 %
Test CRC 838A8FF0
Copy CRC 838A8FF0
Accurately ripped (confidence 5) [6B3296A5]
Copy OK
Track 2
Filename D:\0001 - torrentsss\2002 Earth, Wind & Fire-The Essential\2002 Earth, Wind & Fire-The Essential (CD 2)\02-Earth, Wind & Fire-Evil.wav
Pre-gap length 0:00:01.61
Peak level 99.7 %
Track quality 100.0 %
Test CRC 99B989F3
Copy CRC 99B989F3
Accurately ripped (confidence 6) [809E8CCF]
Copy OK
Track 3
Filename D:\0001 - torrentsss\2002 Earth, Wind & Fire-The Essential\2002 Earth, Wind & Fire-The Essential (CD 2)\03-Earth, Wind & Fire-Devotion.wav
Pre-gap length 0:00:01.68
Peak level 99.8 %
Track quality 100.0 %
Test CRC 26A3D996
Copy CRC 26A3D996
Accurately ripped (confidence 6) [E60A0D67]
Copy OK
Track 4
Filename D:\0001 - torrentsss\2002 Earth, Wind & Fire-The Essential\2002 Earth, Wind & Fire-The Essential (CD 2)\04-Earth, Wind & Fire-Keep Your Head To The Sky.wav
Pre-gap length 0:00:01.63
Peak level 93.1 %
Track quality 100.0 %
Test CRC CB2A382B
Copy CRC CB2A382B
Accurately ripped (confidence 6) [3A776C63]
Copy OK
Track 5
Filename D:\0001 - torrentsss\2002 Earth, Wind & Fire-The Essential\2002 Earth, Wind & Fire-The Essential (CD 2)\05-Earth, Wind & Fire-Kalimba Story.wav
Pre-gap length 0:00:00.39
Peak level 99.9 %
Track quality 100.0 %
Test CRC 3DF665B4
Copy CRC 3DF665B4
Accurately ripped (confidence 6) [D2C329D1]
Copy OK
Track 6
Filename D:\0001 - torrentsss\2002 Earth, Wind & Fire-The Essential\2002 Earth, Wind & Fire-The Essential (CD 2)\06-Earth, Wind & Fire-Shining Star.wav
Pre-gap length 0:00:01.67
Peak level 83.0 %
Track quality 100.0 %
Test CRC 71166C3A
Copy CRC 71166C3A
Accurately ripped (confidence 6) [7E8ED4CC]
Copy OK
Track 7
Filename D:\0001 - torrentsss\2002 Earth, Wind & Fire-The Essential\2002 Earth, Wind & Fire-The Essential (CD 2)\07-Earth, Wind & Fire-That's The Way Of The World.wav
Pre-gap length 0:00:01.65
Peak level 99.8 %
Track quality 99.9 %
Test CRC 732EBB92
Copy CRC 732EBB92
Accurately ripped (confidence 6) [5908025B]
Copy OK
Track 8
Filename D:\0001 - torrentsss\2002 Earth, Wind & Fire-The Essential\2002 Earth, Wind & Fire-The Essential (CD 2)\08-Earth, Wind & Fire-Yearnin' Learnin'.wav
Pre-gap length 0:00:01.63
Peak level 99.3 %
Track quality 100.0 %
Test CRC DD32B3A3
Copy CRC DD32B3A3
Accurately ripped (confidence 6) [FD09C97A]
Copy OK
Track 9
Filename D:\0001 - torrentsss\2002 Earth, Wind & Fire-The Essential\2002 Earth, Wind & Fire-The Essential (CD 2)\09-Earth, Wind & Fire-All About Love.wav
Pre-gap length 0:00:01.59
Peak level 99.8 %
Track quality 100.0 %
Test CRC 7D0DCAFE
Copy CRC 7D0DCAFE
Accurately ripped (confidence 6) [C20D9FB8]
Copy OK
Track 10
Filename D:\0001 - torrentsss\2002 Earth, Wind & Fire-The Essential\2002 Earth, Wind & Fire-The Essential (CD 2)\10-Earth, Wind & Fire-Reasons.wav
Pre-gap length 0:00:01.48
Peak level 99.8 %
Track quality 100.0 %
Test CRC 8894D1E2
Copy CRC 8894D1E2
Accurately ripped (confidence 6) [B8006BD4]
Copy OK
Track 11
Filename D:\0001 - torrentsss\2002 Earth, Wind & Fire-The Essential\2002 Earth, Wind & Fire-The Essential (CD 2)\11-Earth, Wind & Fire-Sing A Song.wav
Pre-gap length 0:00:01.52
Peak level 83.9 %
Track quality 100.0 %
Test CRC 22718017
Copy CRC 22718017
Accurately ripped (confidence 6) [68F1BEC4]
Copy OK
Track 12
Filename D:\0001 - torrentsss\2002 Earth, Wind & Fire-The Essential\2002 Earth, Wind & Fire-The Essential (CD 2)\12-Earth, Wind & Fire-Can't Hide Love.wav
Pre-gap length 0:00:01.57
Peak level 99.8 %
Track quality 100.0 %
Test CRC 977CB42F
Copy CRC 977CB42F
Accurately ripped (confidence 6) [D859A11B]
Copy OK
Track 13
Filename D:\0001 - torrentsss\2002 Earth, Wind & Fire-The Essential\2002 Earth, Wind & Fire-The Essential (CD 2)\13-Earth, Wind & Fire-Getaway.wav
Pre-gap length 0:00:01.63
Peak level 99.9 %
Track quality 100.0 %
Test CRC EA5A5F47
Copy CRC EA5A5F47
Accurately ripped (confidence 6) [8E5D16D1]
Copy OK
Track 14
Filename D:\0001 - torrentsss\2002 Earth, Wind & Fire-The Essential\2002 Earth, Wind & Fire-The Essential (CD 2)\14-Earth, Wind & Fire-Saturday Nite.wav
Pre-gap length 0:00:01.70
Peak level 99.9 %
Track quality 100.0 %
Test CRC 4FD614E6
Copy CRC 4FD614E6
Accurately ripped (confidence 6) [66486F64]
Copy OK
Track 15
Filename D:\0001 - torrentsss\2002 Earth, Wind & Fire-The Essential\2002 Earth, Wind & Fire-The Essential (CD 2)\15-Earth, Wind & Fire-Ponta De Areia (Brazilian Rhyme),Be Ever Wonderful.wav
Pre-gap length 0:00:01.56
Peak level 94.1 %
Track quality 100.0 %
Test CRC 0BC384A2
Copy CRC 0BC384A2
Accurately ripped (confidence 6) [39A2E7FA]
Copy OK
Track 16
Filename D:\0001 - torrentsss\2002 Earth, Wind & Fire-The Essential\2002 Earth, Wind & Fire-The Essential (CD 2)\16-Earth, Wind & Fire-Open Our Eyes.wav
Pre-gap length 0:00:01.58
Peak level 99.2 %
Track quality 100.0 %
Test CRC 0E04CA7E
Copy CRC 0E04CA7E
Accurately ripped (confidence 6) [06B458B6]
Copy OK
Track 17
Filename D:\0001 - torrentsss\2002 Earth, Wind & Fire-The Essential\2002 Earth, Wind & Fire-The Essential (CD 2)\17-Earth, Wind & Fire-Got To Get You Into My Life.wav
Pre-gap length 0:00:01.46
Peak level 99.8 %
Track quality 100.0 %
Test CRC CF241269
Copy CRC CF241269
Accurately ripped (confidence 4) [841FB081]
Copy OK
All tracks accurately ripped
No errors occurred
End of status report
 
Audiochecker
Started at: ÷åòâåðã, 25. 02. 2010. - 1:00.10
17 files found
01 -===- D:\Music\lossless\Earth, Wind & Fire-The Essential (2CD) (2002)\2002 Earth, Wind & Fire-The Essential (CD 2)\01-Earth, Wind & Fire-Mighty Mighty.flac
Extracted successfully
Conclusion: this track is CDDA with probability 99%
Tempfile successfully deleted.
02 -===- D:\Music\lossless\Earth, Wind & Fire-The Essential (2CD) (2002)\2002 Earth, Wind & Fire-The Essential (CD 2)\02-Earth, Wind & Fire-Evil.flac
Extracted successfully
Conclusion: this track is CDDA with probability 100%
Tempfile successfully deleted.
03 -===- D:\Music\lossless\Earth, Wind & Fire-The Essential (2CD) (2002)\2002 Earth, Wind & Fire-The Essential (CD 2)\03-Earth, Wind & Fire-Devotion.flac
Extracted successfully
Conclusion: this track is CDDA with probability 100%
Tempfile successfully deleted.
04 -===- D:\Music\lossless\Earth, Wind & Fire-The Essential (2CD) (2002)\2002 Earth, Wind & Fire-The Essential (CD 2)\04-Earth, Wind & Fire-Keep Your Head To The Sky.flac
Extracted successfully
Conclusion: this track is CDDA with probability 100%
Tempfile successfully deleted.
05 -===- D:\Music\lossless\Earth, Wind & Fire-The Essential (2CD) (2002)\2002 Earth, Wind & Fire-The Essential (CD 2)\05-Earth, Wind & Fire-Kalimba Story.flac
Extracted successfully
Conclusion: this track is CDDA with probability 99%
Tempfile successfully deleted.
06 -===- D:\Music\lossless\Earth, Wind & Fire-The Essential (2CD) (2002)\2002 Earth, Wind & Fire-The Essential (CD 2)\06-Earth, Wind & Fire-Shining Star.flac
Extracted successfully
Conclusion: this track is CDDA with probability 100%
Tempfile successfully deleted.
07 -===- D:\Music\lossless\Earth, Wind & Fire-The Essential (2CD) (2002)\2002 Earth, Wind & Fire-The Essential (CD 2)\07-Earth, Wind & Fire-That's The Way Of The World.flac
Extracted successfully
Conclusion: this track is CDDA with probability 100%
Tempfile successfully deleted.
08 -===- D:\Music\lossless\Earth, Wind & Fire-The Essential (2CD) (2002)\2002 Earth, Wind & Fire-The Essential (CD 2)\08-Earth, Wind & Fire-Yearnin' Learnin'.flac
Extracted successfully
Conclusion: this track is CDDA with probability 100%
Tempfile successfully deleted.
09 -===- D:\Music\lossless\Earth, Wind & Fire-The Essential (2CD) (2002)\2002 Earth, Wind & Fire-The Essential (CD 2)\09-Earth, Wind & Fire-All About Love.flac
Extracted successfully
Conclusion: this track is CDDA with probability 100%
Tempfile successfully deleted.
10 -===- D:\Music\lossless\Earth, Wind & Fire-The Essential (2CD) (2002)\2002 Earth, Wind & Fire-The Essential (CD 2)\10-Earth, Wind & Fire-Reasons.flac
Extracted successfully
Conclusion: this track is CDDA with probability 100%
Tempfile successfully deleted.
11 -===- D:\Music\lossless\Earth, Wind & Fire-The Essential (2CD) (2002)\2002 Earth, Wind & Fire-The Essential (CD 2)\11-Earth, Wind & Fire-Sing A Song.flac
Extracted successfully
Conclusion: this track is CDDA with probability 100%
Tempfile successfully deleted.
12 -===- D:\Music\lossless\Earth, Wind & Fire-The Essential (2CD) (2002)\2002 Earth, Wind & Fire-The Essential (CD 2)\12-Earth, Wind & Fire-Can't Hide Love.flac
Extracted successfully
Conclusion: this track is CDDA with probability 100%
Tempfile successfully deleted.
13 -===- D:\Music\lossless\Earth, Wind & Fire-The Essential (2CD) (2002)\2002 Earth, Wind & Fire-The Essential (CD 2)\13-Earth, Wind & Fire-Getaway.flac
Extracted successfully
Conclusion: this track is CDDA with probability 100%
Tempfile successfully deleted.
14 -===- D:\Music\lossless\Earth, Wind & Fire-The Essential (2CD) (2002)\2002 Earth, Wind & Fire-The Essential (CD 2)\14-Earth, Wind & Fire-Saturday Nite.flac
Extracted successfully
Conclusion: this track is CDDA with probability 100%
Tempfile successfully deleted.
15 -===- D:\Music\lossless\Earth, Wind & Fire-The Essential (2CD) (2002)\2002 Earth, Wind & Fire-The Essential (CD 2)\15-Earth, Wind & Fire-Ponta De Areia (Brazilian Rhyme),Be Ever Wonderful.flac
Extracted successfully
Conclusion: this track is CDDA with probability 100%
Tempfile successfully deleted.
16 -===- D:\Music\lossless\Earth, Wind & Fire-The Essential (2CD) (2002)\2002 Earth, Wind & Fire-The Essential (CD 2)\16-Earth, Wind & Fire-Open Our Eyes.flac
Extracted successfully
Conclusion: this track is CDDA with probability 100%
Tempfile successfully deleted.
17 -===- D:\Music\lossless\Earth, Wind & Fire-The Essential (2CD) (2002)\2002 Earth, Wind & Fire-The Essential (CD 2)\17-Earth, Wind & Fire-Got To Get You Into My Life.flac
Extracted successfully
Conclusion: this track is CDDA with probability 100%
Tempfile successfully deleted.
Finished at: ÷åòâåðã, 25. 02. 2010. - 1:21.17 (operation time: 0:21.07)
 
CUE CD1
REM GENRE Pop/Funk
REM DATE 2002
REM DISCID DF122811
REM COMMENT "ExactAudioCopy v0.99pb4"
PERFORMER "Earth, Wind & Fire"
TITLE "The Essential"
FILE "01-Earth, Wind & Fire-September.wav" WAVE
TRACK 01 AUDIO
TITLE "September"
PERFORMER "Earth, Wind & Fire"
INDEX 01 00:00:00
FILE "02-Earth, Wind & Fire-Serpentine Fire.wav" WAVE
TRACK 02 AUDIO
TITLE "Serpentine Fire"
PERFORMER "Earth, Wind & Fire"
PREGAP 00:00:02
INDEX 01 00:00:00
FILE "03-Earth, Wind & Fire-Fantasy.wav" WAVE
TRACK 03 AUDIO
TITLE "Fantasy"
PERFORMER "Earth, Wind & Fire"
INDEX 01 00:00:00
FILE "04-Earth, Wind & Fire-I'll Write A Song For You.wav" WAVE
TRACK 04 AUDIO
TITLE "I'll Write A Song For You"
PERFORMER "Earth, Wind & Fire"
PREGAP 00:00:01
INDEX 01 00:00:00
FILE "05-Earth, Wind & Fire-Drum Song.wav" WAVE
TRACK 05 AUDIO
TITLE "Drum Song"
PERFORMER "Earth, Wind & Fire"
INDEX 01 00:00:00
FILE "06-Earth, Wind & Fire-In The Stone.wav" WAVE
TRACK 06 AUDIO
TITLE "In The Stone"
PERFORMER "Earth, Wind & Fire"
INDEX 01 00:00:00
FILE "07-Earth, Wind & Fire-Can't Let Go.wav" WAVE
TRACK 07 AUDIO
TITLE "Can't Let Go"
PERFORMER "Earth, Wind & Fire"
INDEX 01 00:00:00
FILE "08-Earth, Wind & Fire-After The Love Has Gone.wav" WAVE
TRACK 08 AUDIO
TITLE "After The Love Has Gone"
PERFORMER "Earth, Wind & Fire"
PREGAP 00:00:72
INDEX 01 00:00:00
FILE "09-Earth, Wind & Fire-Wait.wav" WAVE
TRACK 09 AUDIO
TITLE "Wait"
PERFORMER "Earth, Wind & Fire"
INDEX 01 00:00:00
FILE "10-Earth, Wind & Fire-You And I.wav" WAVE
TRACK 10 AUDIO
TITLE "You And I"
PERFORMER "Earth, Wind & Fire"
INDEX 01 00:00:00
FILE "11-Earth, Wind & Fire-Let Me Talk.wav" WAVE
TRACK 11 AUDIO
TITLE "Let Me Talk"
PERFORMER "Earth, Wind & Fire"
PREGAP 00:00:03
INDEX 01 00:00:00
FILE "12-Earth, Wind & Fire-And Love Goes On.wav" WAVE
TRACK 12 AUDIO
TITLE "And Love Goes On"
PERFORMER "Earth, Wind & Fire"
INDEX 01 00:00:00
FILE "13-Earth, Wind & Fire-You.wav" WAVE
TRACK 13 AUDIO
TITLE "You"
PERFORMER "Earth, Wind & Fire"
INDEX 01 00:00:00
FILE "14-Earth, Wind & Fire-Let's Groove.wav" WAVE
TRACK 14 AUDIO
TITLE "Let's Groove"
PERFORMER "Earth, Wind & Fire"
INDEX 01 00:00:00
FILE "15-Earth, Wind & Fire-Fall In Love With Me.wav" WAVE
TRACK 15 AUDIO
TITLE "Fall In Love With Me"
PERFORMER "Earth, Wind & Fire"
INDEX 01 00:00:00
FILE "16-Earth, Wind & Fire-Side By Side.wav" WAVE
TRACK 16 AUDIO
TITLE "Side By Side"
PERFORMER "Earth, Wind & Fire"
INDEX 01 00:00:00
FILE "17-Earth, Wind & Fire-Boogie Wonderland (With The Emotions).wav" WAVE
TRACK 17 AUDIO
TITLE "Boogie Wonderland (With The Emotions)"
PERFORMER "Earth, Wind & Fire"
INDEX 01 00:00:00
 
CUE CD2
REM GENRE Pop/Funk
REM DATE 2002
REM DISCID 0611A111
REM COMMENT "ExactAudioCopy v0.99pb4"
PERFORMER "Earth, Wind & Fire"
TITLE "The Essential (CD 2)"
FILE "01-Earth, Wind & Fire-Mighty Mighty.wav" WAVE
TRACK 01 AUDIO
TITLE "Mighty Mighty"
PERFORMER "Earth, Wind & Fire"
INDEX 01 00:00:00
FILE "02-Earth, Wind & Fire-Evil.wav" WAVE
TRACK 02 AUDIO
TITLE "Evil"
PERFORMER "Earth, Wind & Fire"
PREGAP 00:01:61
INDEX 01 00:00:00
FILE "03-Earth, Wind & Fire-Devotion.wav" WAVE
TRACK 03 AUDIO
TITLE "Devotion"
PERFORMER "Earth, Wind & Fire"
PREGAP 00:01:68
INDEX 01 00:00:00
FILE "04-Earth, Wind & Fire-Keep Your Head To The Sky.wav" WAVE
TRACK 04 AUDIO
TITLE "Keep Your Head To The Sky"
PERFORMER "Earth, Wind & Fire"
PREGAP 00:01:63
INDEX 01 00:00:00
FILE "05-Earth, Wind & Fire-Kalimba Story.wav" WAVE
TRACK 05 AUDIO
TITLE "Kalimba Story"
PERFORMER "Earth, Wind & Fire"
PREGAP 00:00:39
INDEX 01 00:00:00
FILE "06-Earth, Wind & Fire-Shining Star.wav" WAVE
TRACK 06 AUDIO
TITLE "Shining Star"
PERFORMER "Earth, Wind & Fire"
PREGAP 00:01:67
INDEX 01 00:00:00
FILE "07-Earth, Wind & Fire-That's The Way Of The World.wav" WAVE
TRACK 07 AUDIO
TITLE "That's The Way Of The World"
PERFORMER "Earth, Wind & Fire"
PREGAP 00:01:65
INDEX 01 00:00:00
FILE "08-Earth, Wind & Fire-Yearnin' Learnin'.wav" WAVE
TRACK 08 AUDIO
TITLE "Yearnin' Learnin'"
PERFORMER "Earth, Wind & Fire"
PREGAP 00:01:63
INDEX 01 00:00:00
FILE "09-Earth, Wind & Fire-All About Love.wav" WAVE
TRACK 09 AUDIO
TITLE "All About Love"
PERFORMER "Earth, Wind & Fire"
PREGAP 00:01:59
INDEX 01 00:00:00
FILE "10-Earth, Wind & Fire-Reasons.wav" WAVE
TRACK 10 AUDIO
TITLE "Reasons"
PERFORMER "Earth, Wind & Fire"
PREGAP 00:01:48
INDEX 01 00:00:00
FILE "11-Earth, Wind & Fire-Sing A Song.wav" WAVE
TRACK 11 AUDIO
TITLE "Sing A Song"
PERFORMER "Earth, Wind & Fire"
PREGAP 00:01:52
INDEX 01 00:00:00
FILE "12-Earth, Wind & Fire-Can't Hide Love.wav" WAVE
TRACK 12 AUDIO
TITLE "Can't Hide Love"
PERFORMER "Earth, Wind & Fire"
PREGAP 00:01:57
INDEX 01 00:00:00
FILE "13-Earth, Wind & Fire-Getaway.wav" WAVE
TRACK 13 AUDIO
TITLE "Getaway"
PERFORMER "Earth, Wind & Fire"
PREGAP 00:01:63
INDEX 01 00:00:00
FILE "14-Earth, Wind & Fire-Saturday Nite.wav" WAVE
TRACK 14 AUDIO
TITLE "Saturday Nite"
PERFORMER "Earth, Wind & Fire"
PREGAP 00:01:70
INDEX 01 00:00:00
FILE "15-Earth, Wind & Fire-Ponta De Areia (Brazilian Rhyme),Be Ever Wonderful.wav" WAVE
TRACK 15 AUDIO
TITLE "Ponta De Areia (Brazilian Rhyme)/Be Ever Wonderful"
PERFORMER "Earth, Wind & Fire"
PREGAP 00:01:56
INDEX 01 00:00:00
FILE "16-Earth, Wind & Fire-Open Our Eyes.wav" WAVE
TRACK 16 AUDIO
TITLE "Open Our Eyes"
PERFORMER "Earth, Wind & Fire"
PREGAP 00:01:58
INDEX 01 00:00:00
FILE "17-Earth, Wind & Fire-Got To Get You Into My Life.wav" WAVE
TRACK 17 AUDIO
TITLE "Got To Get You Into My Life"
PERFORMER "Earth, Wind & Fire"
PREGAP 00:01:46
INDEX 01 00:00:00
Найдено на зарубежном трекере
Приватный:
Нет (DHT включён)
Размер:
1003.73 Мб (1,052,491,806 байт) » файлов: 47
Участники:
0 раздают, 0 качают (0 участников всего)
Внешние участники:
5 раздают, 2 качают (7 участников всего) [ Обновить ]
02:43
24
Нет комментариев. Ваш будет первым!