Поиск

(Soul) Barry White - Best Of (Greek-only commercial release) - 1999, FLAC (tracks+.cue), lossless

(Soul) Barry White - Best Of (Greek-only commercial release) - 1999, FLAC (tracks+.cue), lossless
Треклист:
Barry White - Best Of (Greek-only commercial release)
Жанр: Soul
Год выпуска диска: 1999
Производитель диска: Sakkaris / Prestige
Аудио кодек: FLAC
Тип рипа: tracks+.cue
Происхождение рипа: из сети (H33T alekow)
Битрейт аудио: lossless
Продолжительность: 01:09:15
Трэклист:
01. Lady, Sweet Lady
02. Didn't We Make It Happen Baby
03. High Steppin' Hip Dressin' Fella (You Got It Together)
04. Sweet Music
05. It Ain't Love Babe (Until You Give It Up)
06. He's Mine (No, You Can't Have Him)
07. Your Love, Your Love
08. Free
09. Jamaican Girl
10. Bayou
11. Let Me In And Let's Begin With Love
12. I'm So Glad That I'm A Woman
13. I Did It For Love
14. We Can't Let Go Of Love
 
Отчёт EAC
Exact Audio Copy V0.99 prebeta 5 from 4. May 2009
EAC extraction logfile from 23. February 2010, 8:01
Barry White / Best Of
Used drive : HL-DT-STDVD-RAM GH22NP20 Adapter: 1 ID: 1
Read mode : Secure
Utilize accurate stream : Yes
Defeat audio cache : Yes
Make use of C2 pointers : No
Read offset correction : 102
Overread into Lead-In and Lead-Out : No
Fill up missing offset samples with silence : Yes
Delete leading and trailing silent blocks : No
Null samples used in CRC calculations : Yes
Used interface : Installed external ASPI interface
Gap handling : Appended to previous track
Used output format : User Defined Encoder
Selected bitrate : 1024 kBit/s
Quality : High
Add ID3 tag : No
Command line compressor : C:\Program Files\Exact Audio Copy\FLAC\FLAC.EXE
Additional command line options : -3 -V -T "ARTIST=%a" -T "TITLE=%t" -T "ALBUM=%g" -T "DATE=%y" -T "TRACKNUMBER=%n" -T "GENRE=%m" -T "COMMENT=%e" %s -o %d
Use compression offset : 48
TOC of the extracted CD
Track | Start | Length | Start sector | End sector
---------------------------------------------------------
1 | 0:00.00 | 5:22.34 | 0 | 24183
2 | 5:22.34 | 5:22.58 | 24184 | 48391
3 | 10:45.17 | 5:28.37 | 48392 | 73028
4 | 16:13.54 | 6:58.44 | 73029 | 104422
5 | 23:12.23 | 4:19.39 | 104423 | 123886
6 | 27:31.62 | 3:31.42 | 123887 | 139753
7 | 31:03.29 | 4:21.62 | 139754 | 159390
8 | 35:25.16 | 4:56.61 | 159391 | 181651
9 | 40:22.02 | 5:21.47 | 181652 | 205773
10 | 45:43.49 | 4:51.35 | 205774 | 227633
11 | 50:35.09 | 6:01.74 | 227634 | 254782
12 | 56:37.08 | 3:57.41 | 254783 | 272598
13 | 60:34.49 | 4:48.47 | 272599 | 294245
14 | 65:23.21 | 3:51.01 | 294246 | 311571
Track 1
Filename C:\01. Lady, Sweet Lady.wav
Pre-gap length 0:00:02.00
Peak level 99.2 %
Track quality 100.0 %
Copy CRC 723C9439
Accurately ripped (confidence 1) [38976EFB]
Copy OK
Track 2
Filename C:\02. Didn't We Make It Happen Baby.wav
Pre-gap length 0:00:01.62
Peak level 99.2 %
Track quality 99.9 %
Copy CRC B7D009B5
Accurately ripped (confidence 1) [2896AB7A]
Copy OK
Track 3
Filename C:\03. High Steppin' Hip Dressin' Fella (You Got It Together).wav
Pre-gap length 0:00:01.52
Peak level 99.2 %
Track quality 100.0 %
Copy CRC 5CCA5F9A
Accurately ripped (confidence 1) [B66F7790]
Copy OK
Track 4
Filename C:\04. Sweet Music.wav
Pre-gap length 0:00:01.58
Peak level 99.2 %
Track quality 100.0 %
Copy CRC F045FADD
Accurately ripped (confidence 1) [09E2737C]
Copy OK
Track 5
Filename C:\05. It Ain't Love Babe (Until You Give It Up).wav
Pre-gap length 0:00:01.56
Peak level 99.1 %
Track quality 100.0 %
Copy CRC 4B2A6AA4
Accurately ripped (confidence 1) [111ECD68]
Copy OK
Track 6
Filename C:\06. He's Mine (No, You Can't Have Him).wav
Pre-gap length 0:00:01.27
Peak level 99.2 %
Track quality 100.0 %
Copy CRC D5E21B98
Accurately ripped (confidence 1) [D9F2DBEA]
Copy OK
Track 7
Filename C:\07. Your Love, Your Love.wav
Pre-gap length 0:00:01.34
Peak level 99.2 %
Track quality 100.0 %
Copy CRC C7A9D2EC
Accurately ripped (confidence 1) [321F72CD]
Copy OK
Track 8
Filename C:\08. Free.wav
Pre-gap length 0:00:01.30
Peak level 99.2 %
Track quality 100.0 %
Copy CRC 42778B71
Accurately ripped (confidence 1) [81752070]
Copy OK
Track 9
Filename C:\09. Jamaican Girl.wav
Pre-gap length 0:00:01.37
Peak level 99.3 %
Track quality 100.0 %
Copy CRC 0BA78C58
Accurately ripped (confidence 1) [08B4C8EA]
Copy OK
Track 10
Filename C:\10. Bayou.wav
Pre-gap length 0:00:01.50
Peak level 99.3 %
Track quality 100.0 %
Copy CRC A13EDC18
Accurately ripped (confidence 1) [9948A1B3]
Copy OK
Track 11
Filename C:\11. Let Me In And Let's Begin With Love.wav
Pre-gap length 0:00:01.46
Peak level 99.3 %
Track quality 100.0 %
Copy CRC 457B57E1
Accurately ripped (confidence 1) [C3F7E518]
Copy OK
Track 12
Filename C:\12. I'm So Glad That I'm A Woman.wav
Pre-gap length 0:00:01.53
Peak level 99.3 %
Track quality 100.0 %
Copy CRC C48F5180
Cannot be verified as accurate (confidence 1) [32288967], AccurateRip returned [D002AF09]
Copy OK
Track 13
Filename C:\13. I Did It For Love.wav
Pre-gap length 0:00:01.26
Peak level 99.3 %
Track quality 100.0 %
Copy CRC D0B86012
Accurately ripped (confidence 1) [4D5FC60C]
Copy OK
Track 14
Filename C:\14. We Can't Let Go Of Love.wav
Pre-gap length 0:00:01.41
Peak level 99.3 %
Track quality 100.0 %
Copy CRC F8769D9B
Accurately ripped (confidence 1) [E8641658]
Copy OK
13 track(s) accurately ripped
1 track(s) could not be verified as accurate
Some tracks could not be verified as accurate
No errors occurred
End of status report
 
.CUE
Код:
REM GENRE Soul
REM DATE 1999
REM DISCID D9103A0E
REM COMMENT "ExactAudioCopy v0.99pb5"
PERFORMER "Barry White"
TITLE "Best Of"
FILE "01. Lady, Sweet Lady.wav" WAVE
  TRACK 01 AUDIO
    TITLE "Lady, Sweet Lady"
    PERFORMER "Barry White"
    INDEX 01 00:00:00
  TRACK 02 AUDIO
    TITLE "Didn't We Make It Happen Baby"
    PERFORMER "Barry White"
    INDEX 00 05:20:47
FILE "02. Didn't We Make It Happen Baby.wav" WAVE
    INDEX 01 00:00:00
  TRACK 03 AUDIO
    TITLE "High Steppin' Hip Dressin' Fella (You Got It Together)"
    PERFORMER "Barry White"
    INDEX 00 05:21:06
FILE "03. High Steppin' Hip Dressin' Fella (You Got It Together).wav" WAVE
    INDEX 01 00:00:00
  TRACK 04 AUDIO
    TITLE "Sweet Music"
    PERFORMER "Barry White"
    INDEX 00 05:26:54
FILE "04. Sweet Music.wav" WAVE
    INDEX 01 00:00:00
  TRACK 05 AUDIO
    TITLE "It Ain't Love Babe (Until You Give It Up)"
    PERFORMER "Barry White"
    INDEX 00 06:56:63
FILE "05. It Ain't Love Babe (Until You Give It Up).wav" WAVE
    INDEX 01 00:00:00
  TRACK 06 AUDIO
    TITLE "He's Mine (No, You Can't Have Him)"
    PERFORMER "Barry White"
    INDEX 00 04:18:12
FILE "06. He's Mine (No, You Can't Have Him).wav" WAVE
    INDEX 01 00:00:00
  TRACK 07 AUDIO
    TITLE "Your Love, Your Love"
    PERFORMER "Barry White"
    INDEX 00 03:30:08
FILE "07. Your Love, Your Love.wav" WAVE
    INDEX 01 00:00:00
  TRACK 08 AUDIO
    TITLE "Free"
    PERFORMER "Barry White"
    INDEX 00 04:20:32
FILE "08. Free.wav" WAVE
    INDEX 01 00:00:00
  TRACK 09 AUDIO
    TITLE "Jamaican Girl"
    PERFORMER "Barry White"
    INDEX 00 04:55:24
FILE "09. Jamaican Girl.wav" WAVE
    INDEX 01 00:00:00
  TRACK 10 AUDIO
    TITLE "Bayou"
    PERFORMER "Barry White"
    INDEX 00 05:19:72
FILE "10. Bayou.wav" WAVE
    INDEX 01 00:00:00
  TRACK 11 AUDIO
    TITLE "Let Me In And Let's Begin With Love"
    PERFORMER "Barry White"
    INDEX 00 04:49:64
FILE "11. Let Me In And Let's Begin With Love.wav" WAVE
    INDEX 01 00:00:00
  TRACK 12 AUDIO
    TITLE "I'm So Glad That I'm A Woman"
    PERFORMER "Barry White"
    INDEX 00 06:00:21
FILE "12. I'm So Glad That I'm A Woman.wav" WAVE
    INDEX 01 00:00:00
  TRACK 13 AUDIO
    TITLE "I Did It For Love"
    PERFORMER "Barry White"
    INDEX 00 03:56:15
FILE "13. I Did It For Love.wav" WAVE
    INDEX 01 00:00:00
  TRACK 14 AUDIO
    TITLE "We Can't Let Go Of Love"
    PERFORMER "Barry White"
    INDEX 00 04:47:06
FILE "14. We Can't Let Go Of Love.wav" WAVE
    INDEX 01 00:00:00
 
Audiochecker log
AUDIOCHECKER v2.0 beta (build 457) - by Dester - opdester@freemail.hu
~~~~~~~~~~~~~~~~~~~~~~~~~~~~~~~~~~
Started at: sabato, 27. 02. 2010. - 11.09.40
14 files found
01 -===- D:\Musica\Barry White - Best Of\01. Lady, Sweet Lady.flac
Extracted successfully
Conclusion: this track is CDDA with probability 100%
Tempfile successfully deleted.
02 -===- D:\Musica\Barry White - Best Of\02. Didn't We Make It Happen Baby.flac
Extracted successfully
Conclusion: this track is CDDA with probability 100%
Tempfile successfully deleted.
03 -===- D:\Musica\Barry White - Best Of\03. High Steppin' Hip Dressin' Fella (You Got It Together).flac
Extracted successfully
Conclusion: this track is CDDA with probability 100%
Tempfile successfully deleted.
04 -===- D:\Musica\Barry White - Best Of\04. Sweet Music.flac
Extracted successfully
Conclusion: this track is CDDA with probability 100%
Tempfile successfully deleted.
05 -===- D:\Musica\Barry White - Best Of\05. It Ain't Love Babe (Until You Give It Up).flac
Extracted successfully
Conclusion: this track is CDDA with probability 100%
Tempfile successfully deleted.
06 -===- D:\Musica\Barry White - Best Of\06. He's Mine (No, You Can't Have Him).flac
Extracted successfully
Conclusion: this track is CDDA with probability 99%
Tempfile successfully deleted.
07 -===- D:\Musica\Barry White - Best Of\07. Your Love, Your Love.flac
Extracted successfully
Conclusion: this track is CDDA with probability 100%
Tempfile successfully deleted.
08 -===- D:\Musica\Barry White - Best Of\08. Free.flac
Extracted successfully
Conclusion: this track is CDDA with probability 100%
Tempfile successfully deleted.
09 -===- D:\Musica\Barry White - Best Of\09. Jamaican Girl.flac
Extracted successfully
Conclusion: this track is CDDA with probability 99%
Tempfile successfully deleted.
10 -===- D:\Musica\Barry White - Best Of\10. Bayou.flac
Extracted successfully
Conclusion: this track is CDDA with probability 100%
Tempfile successfully deleted.
11 -===- D:\Musica\Barry White - Best Of\11. Let Me In And Let's Begin With Love.flac
Extracted successfully
Conclusion: this track is CDDA with probability 100%
Tempfile successfully deleted.
12 -===- D:\Musica\Barry White - Best Of\12. I'm So Glad That I'm A Woman.flac
Extracted successfully
Conclusion: this track is CDDA with probability 100%
Tempfile successfully deleted.
13 -===- D:\Musica\Barry White - Best Of\13. I Did It For Love.flac
Extracted successfully
Conclusion: this track is CDDA with probability 100%
Tempfile successfully deleted.
14 -===- D:\Musica\Barry White - Best Of\14. We Can't Let Go Of Love.flac
Extracted successfully
Conclusion: this track is CDDA with probability 100%
Tempfile successfully deleted.
Finished at: sabato, 27. 02. 2010. - 11.16.22 (operation time: 0.06.42)
Приватный:
Нет (DHT включён)
Размер:
473.95 Мб (496,969,585 байт) » файлов: 19
Участники:
0 раздают, 0 качают (0 участников всего)
Внешние участники:
3 раздают, 1 качают (4 участников всего) [ Обновить ]
Никого нет на раздаче - пишите личное сообщение M0p94ok
No seeders - write personal message to M0p94ok
02:46
19
Нет комментариев. Ваш будет первым!