Поиск

(Jazz+Funk) Stefan Redtenbacher - Redtenbacher's Blue Funkestra (Boozing Wizards) - 1996, APE (image+.cue), lossless

(Jazz+Funk) Stefan Redtenbacher - Redtenbacher's Blue Funkestra (Boozing Wizards) - 1996, APE (image+.cue), lossless
Треклист:
Stefan Redtenbacher-Redtenbacher's Blue Funkestra/Boozing Wizards/
Жанр: Jazz+Funk
Год выпуска диска: 1996
Производитель диска: Stefan Redtenbacher/England/
Аудио кодек: APE
Тип рипа: image+.cue
Битрейт аудио: lossless
Продолжительность: 00:45:20
Трэклист:
1.Roachmotel
2.Hipe Hat
3.King Louis
4.Love,Love,Love
5.Pedro A I' heure
6.Tant Pis Pour Toi !
7.Shuffle Demon
8.Boozing Wizards
Доп. информация: Band:
Stefan Redtenbacher-bass
Wolfgang Haeuptli-trumpet
Thomas Foyer-alto sax
Robert Frield-tenor,soprano sax
Nichol Thomson-trombone
Sebastian Grimus-flute,clarinet
Dan Pratt-bari/bass clarinet
Neal Itzler-guitar
Dave Limina-organ
Larry Finn-drums
Рип из личного архива.
 
Отчёт EAC
Exact Audio Copy V0.99 prebeta 4 from 23. January 2008
Отчёт EAC об извлечении, выполненном 2. марта 2010, 21:14
Stefan Redtenbacher / Boozing Wizards
Дисковод: _NEC DVD_RW ND-2510A Adapter: 1 ID: 0
Режим чтения : Достоверность
Использование точного потока : Да
Отключение кэша аудио : Да
Использование указателей C2 : Нет
Коррекция смещения при чтении : 48
Способность читать области Lead-in и Lead-out : Нет
Заполнение пропущенных сэмплов тишиной : Да
Удаление блоков с тишиной в начале и конце : Нет
При вычислениях CRC использовались нулевые сэмплы : Да
Интерфейс : Установленный внешний ASPI-интерфейс
Выходной формат : Внутренние WAV-операции
Формат сэмплов : 44.100 Гц; 16 бит; стерео
TOC извлечённого CD
Трек | Старт | Длительность | Начальный сектор | Конечный сектор
---------------------------------------------------------------------
1 | 0:00.00 | 4:21.29 | 0 | 19603
2 | 4:21.29 | 5:16.46 | 19604 | 43349
3 | 9:38.00 | 4:28.72 | 43350 | 63521
4 | 14:06.72 | 5:30.16 | 63522 | 88287
5 | 19:37.13 | 6:59.46 | 88288 | 119758
6 | 26:36.59 | 5:32.60 | 119759 | 144718
7 | 32:09.44 | 6:34.10 | 144719 | 174278
8 | 38:43.54 | 6:36.48 | 174279 | 204026
Характеристики диапазона извлечения и сообщения об ошибках
Выбранный диапазон
Имя файла E:\ПРОЕКТ\R.B.Funkestra-Boozing Wizards\Stefan Redtenbacher - Boozing Wizards.wav
Пиковый уровень 99.9 %
Качество диапазона 100.0 %
CRC теста 86700CB1
CRC копии 86700CB1
Копирование... OK
Ошибок не произошло
AccurateRip: сводка
Трек 1 нет в базе данных
Трек 2 нет в базе данных
Трек 3 нет в базе данных
Трек 4 нет в базе данных
Трек 5 нет в базе данных
Трек 6 нет в базе данных
Трек 7 нет в базе данных
Трек 8 нет в базе данных
Ни одного трека нет в базе AccurateRip
Конец отчёта
Приватный:
Нет (DHT включён)
Размер:
302.72 Мб (317,420,661 байт) » файлов: 3
Участники:
0 раздают, 0 качают (0 участников всего)
Внешние участники:
1 раздают, 0 качают (1 участников всего) [ Обновить ]
Есть вопросы - пишите личное сообщение пользователю M0p94ok.
02:47
28
Нет комментариев. Ваш будет первым!