Поиск

(Funk, Soul, R'n'B) Labi Siffre - The Best Of Labi Siffre - 2006, FLAC (image+.cue), lossless

(Funk, Soul, R'n'B) Labi Siffre - The Best Of Labi Siffre - 2006, FLAC (image+.cue), lossless
Треклист:
Labi Siffre - The Best Of Labi Siffre
Жанр: Funk, Soul, R'n'B
Год выпуска диска: 2006
Производитель диска: UK
Аудио кодек: FLAC
Тип рипа: image+.cue
Битрейт аудио: lossless
Продолжительность: 79:08
Labi Siffre - британский поэт, писатель и певец. Известным его сделали песни "(Something Inside) So Strong", "It Must Be Love" и "I Got The".
Семпл из песни "I Got The" использовал Eminem в треке "My Name Is".
Семпл из песни "My Song" использовал Kanye West в треке "I Wonder".
Трэклист:
1. (Something Inside) So Strong (5:37)
2. It Must Be Love (3:53)
3. Crying, Laughing, Loving, Lying (3:03)
4. I Got The (6:34)
5. The Vulture (3:44)
6. Thank Your Lucky Star (3:02)
7. A Little More Line (3:43)
8. Another Year (4:14)
9. My Song (4:40)
10. Make My Day (3:04)
11. Watch Me (3:32)
12. Children Of Children (6:34)
13. Sparrow In The Storm (5:06)
14. Dreamer (4:03)
15. Staride To Nowhere (Single Mix) (4:27)
16. There's Nothing In The World Like Love (3:56)
17. Why Isn't Love Enough? (3:39)
18. If You Have Faith (4:10)
19. Prayer (1:58)
Доп. информация:
 
Отчёт EAC
Exact Audio Copy V0.99 prebeta 5 from 4. May 2009
EAC extraction logfile from 3. March 2010, 20:48
Labi Siffre / The Best Of Labi Siffre
Used drive : ASUS DRW-20B1ST Adapter: 3 ID: 0
Read mode : Secure
Utilize accurate stream : Yes
Defeat audio cache : Yes
Make use of C2 pointers : No
Read offset correction : 6
Overread into Lead-In and Lead-Out : No
Fill up missing offset samples with silence : Yes
Delete leading and trailing silent blocks : No
Null samples used in CRC calculations : Yes
Used interface : Native Win32 interface for Win NT & 2000
Used output format : User Defined Encoder
Selected bitrate : 128 kBit/s
Quality : High
Add ID3 tag : No
Command line compressor : C:\Program Files\Exact Audio Copy\Flac\flac.exe
Additional command line options : -T "DATE=%y" -T "GENRE=%m" -8 -V %s
TOC of the extracted CD
Track | Start | Length | Start sector | End sector
---------------------------------------------------------
1 | 0:00.00 | 5:37.28 | 0 | 25302
2 | 5:37.28 | 3:53.20 | 25303 | 42797
3 | 9:30.48 | 3:03.16 | 42798 | 56538
4 | 12:33.64 | 6:34.54 | 56539 | 86142
5 | 19:08.43 | 3:44.46 | 86143 | 102988
6 | 22:53.14 | 3:02.24 | 102989 | 116662
7 | 25:55.38 | 3:43.71 | 116663 | 133458
8 | 29:39.34 | 4:14.41 | 133459 | 152549
9 | 33:54.00 | 4:40.01 | 152550 | 173550
10 | 38:34.01 | 3:04.15 | 173551 | 187365
11 | 41:38.16 | 3:32.00 | 187366 | 203265
12 | 45:10.16 | 6:34.57 | 203266 | 232872
13 | 51:44.73 | 5:06.23 | 232873 | 255845
14 | 56:51.21 | 4:03.47 | 255846 | 274117
15 | 60:54.68 | 4:27.70 | 274118 | 294212
16 | 65:22.63 | 3:56.67 | 294213 | 311979
17 | 69:19.55 | 3:39.64 | 311980 | 328468
18 | 72:59.44 | 4:10.33 | 328469 | 347251
19 | 77:10.02 | 1:58.55 | 347252 | 356156
Range status and errors
Selected range
Filename C:\Labi\Labi Siffre - The Best Of Labi Siffre.wav
Peak level 100.0 %
Range quality 100.0 %
Test CRC A1E5AC7C
Copy CRC A1E5AC7C
Copy OK
No errors occurred
AccurateRip summary
Track 1 cannot be verified as accurate (confidence 2) [D8C3478F], AccurateRip returned [ABE48DE5]
Track 2 cannot be verified as accurate (confidence 2) [9C7FBF77], AccurateRip returned [B927D324]
Track 3 cannot be verified as accurate (confidence 2) [00DEEC87], AccurateRip returned [54A7D6E9]
Track 4 cannot be verified as accurate (confidence 2) [A3B3CAC1], AccurateRip returned [13788810]
Track 5 cannot be verified as accurate (confidence 2) [93FAC231], AccurateRip returned [B662A345]
Track 6 cannot be verified as accurate (confidence 2) [7059D15E], AccurateRip returned [7C043803]
Track 7 cannot be verified as accurate (confidence 2) [74DCF1AB], AccurateRip returned [ECD4C052]
Track 8 cannot be verified as accurate (confidence 2) [BAA779F1], AccurateRip returned [BAC0F6EA]
Track 9 cannot be verified as accurate (confidence 2) [55ECCA93], AccurateRip returned [FB99836D]
Track 10 cannot be verified as accurate (confidence 2) [9D671D6C], AccurateRip returned [84C5F0D0]
Track 11 cannot be verified as accurate (confidence 2) [46EF60BE], AccurateRip returned [A752CC43]
Track 12 cannot be verified as accurate (confidence 2) [9D8D948D], AccurateRip returned [F3F18E91]
Track 13 cannot be verified as accurate (confidence 2) [1F7CAE41], AccurateRip returned [AF09F005]
Track 14 cannot be verified as accurate (confidence 2) [36FE7849], AccurateRip returned [967FAF7D]
Track 15 cannot be verified as accurate (confidence 2) [DD00F2F9], AccurateRip returned [F2CEEC25]
Track 16 cannot be verified as accurate (confidence 2) [3E006B65], AccurateRip returned [C6230A99]
Track 17 cannot be verified as accurate (confidence 2) [59288703], AccurateRip returned [66917719]
Track 18 cannot be verified as accurate (confidence 2) [391F5AAC], AccurateRip returned [9A1A8CD2]
Track 19 cannot be verified as accurate (confidence 2) [43971D31], AccurateRip returned [9DB51C81]
No tracks could be verified as accurate
You may have a different pressing from the one(s) in the database
End of status report
 
Audiochecker
Started at: среда, 03. 03. 2010. - 21:46.26
1 file found
1 -===- C:\Labi\Labi Siffre - The Best Of Labi Siffre.flac
Extracted successfully
Conclusion: this track is CDDA with probability 100%
Tempfile successfully deleted.
Finished at: среда, 03. 03. 2010. - 21:51.33 (operation time: 0:05.06)
 
Спектры


Сканы присутствуют.
Приватный:
Нет (DHT включён)
Размер:
529.10 Мб (554,798,360 байт) » файлов: 13
Участники:
0 раздают, 0 качают (0 участников всего)
Внешние участники:
2 раздают, 1 качают (3 участников всего) [ Обновить ]
Нет сидеров - пишите личное сообщение M0p94ok. Не нравятся торренты? Участники группы Pro-jazz Club могут заказать прямую ссылку на скачивание из облака.
No seeders - write a personal message to M0p94ok. Don't like torrents? Members of Pro-jazz Club group can order a direct download link from the cloud.
02:48
18
Нет комментариев. Ваш будет первым!