Поиск

(Soul Jazz, Latin Jazz) [CD] Billy Wooten (w/ Vida Bole Ensemble) - Evening on the Canal - 1995 (2013 Japan Edition), FLAC (tracks+.cue), lossless

(Soul Jazz, Latin Jazz) [CD] Billy Wooten (w/ Vida Bole Ensemble) - Evening on the Canal - 1995 (2013 Japan Edition), FLAC (tracks+.cue), lossless
Треклист:
Billy Wooten - Evening on the Canal
Жанр: Soul Jazz, Latin Jazz
Носитель: CD
Страна-производитель диска (релиза): Япония
Год издания: 1995 (2013)
Издатель (лейбл): P-Vine Records
Номер по каталогу: PCD-93723
Страна исполнителя (группы): США
Аудиокодек: FLAC (*.flac)
Тип рипа: tracks+.cue
Битрейт аудио: lossless
Продолжительность: 48:50
Источник (релизер): stoichie (what)
Наличие сканов в содержимом раздачи: нет
Треклист:
01. Want You to Be My Love (7:57)
02. Sugar Man (7:49)
03. Comingo de Amor (4:43)
04. Mumba Caliente (5:14)
05. Vocalese Majik (6:52)
06. Mi Rosa Mujer (7:19)
07. Shoo Bee Doo Bee (5:36)
08. Don Diablo (3:20)
 
Лог создания рипа
Exact Audio Copy V1.0 beta 6 from 9. April 2015
EAC extraction logfile from 11. July 2015, 16:22
Billy Wooten / Evening On The Canal
Used drive : MATSHITADVD+-RW UJ8FB Adapter: 1 ID: 0
Read mode : Secure
Utilize accurate stream : Yes
Defeat audio cache : Yes
Make use of C2 pointers : No
Read offset correction : 6
Overread into Lead-In and Lead-Out : No
Fill up missing offset samples with silence : Yes
Delete leading and trailing silent blocks : No
Null samples used in CRC calculations : Yes
Used interface : Native Win32 interface for Win NT & 2000
Gap handling : Appended to previous track
Used output format : User Defined Encoder
Selected bitrate : 1024 kBit/s
Quality : High
Add ID3 tag : No
Command line compressor : C:\Program Files\Flac\flac.exe
Additional command line options : -8 -V -T "ARTIST=%artist%" -T "TITLE=%title%" -T "ALBUM=%albumtitle%" -T "DATE=%year%" -T "TRACKNUMBER=%tracknr%" -T "GENRE=%genre%" -T "PERFORMER=%albuminterpret%" -T "COMPOSER=%composer%" %haslyrics%--tag-from-file=LYRICS="%lyricsfile%"%haslyrics% -T "ALBUMARTIST=%albumartist%" -T "DISCNUMBER=%cdnumber%" -T "TOTALDISCS=%totalcds%" -T "TOTALTRACKS=%numtracks%" -T "COMMENT=%comment%" %source% -o %dest%
TOC of the extracted CD
Track | Start | Length | Start sector | End sector
---------------------------------------------------------
1 | 0:00.00 | 7:57.02 | 0 | 35776
2 | 7:57.02 | 7:48.71 | 35777 | 70947
3 | 15:45.73 | 4:43.17 | 70948 | 92189
4 | 20:29.15 | 5:13.46 | 92190 | 115710
5 | 25:42.61 | 6:52.20 | 115711 | 146630
6 | 32:35.06 | 7:19.37 | 146631 | 179592
7 | 39:54.43 | 5:35.68 | 179593 | 204785
8 | 45:30.36 | 3:20.17 | 204786 | 219802
Track 1
Filename C:\EAC Rips\Billy Wooten - Evening On The Canal (1995)\01 - Want You To Be My Love.wav
Pre-gap length 0:00:02.00
Peak level 99.4 %
Extraction speed 3.0 X
Track quality 100.0 %
Test CRC EA7937BB
Copy CRC EA7937BB
Track not present in AccurateRip database
Copy OK
Track 2
Filename C:\EAC Rips\Billy Wooten - Evening On The Canal (1995)\02 - Sugar Man.wav
Peak level 99.4 %
Extraction speed 3.5 X
Track quality 100.0 %
Test CRC 857FA4DE
Copy CRC 857FA4DE
Track not present in AccurateRip database
Copy OK
Track 3
Filename C:\EAC Rips\Billy Wooten - Evening On The Canal (1995)\03 - Comingo De Amor.wav
Pre-gap length 0:00:00.66
Peak level 99.4 %
Extraction speed 3.7 X
Track quality 100.0 %
Test CRC D558A13A
Copy CRC D558A13A
Track not present in AccurateRip database
Copy OK
Track 4
Filename C:\EAC Rips\Billy Wooten - Evening On The Canal (1995)\04 - Mumba Caliente.wav
Peak level 99.5 %
Extraction speed 4.0 X
Track quality 100.0 %
Test CRC 0FE51383
Copy CRC 0FE51383
Track not present in AccurateRip database
Copy OK
Track 5
Filename C:\EAC Rips\Billy Wooten - Evening On The Canal (1995)\05 - Vocalese Majik.wav
Peak level 99.4 %
Extraction speed 4.5 X
Track quality 100.0 %
Test CRC 19ADF136
Copy CRC 19ADF136
Track not present in AccurateRip database
Copy OK
Track 6
Filename C:\EAC Rips\Billy Wooten - Evening On The Canal (1995)\06 - Mi Rosa Mujer.wav
Peak level 99.4 %
Extraction speed 4.8 X
Track quality 100.0 %
Test CRC CA80D9B4
Copy CRC CA80D9B4
Track not present in AccurateRip database
Copy OK
Track 7
Filename C:\EAC Rips\Billy Wooten - Evening On The Canal (1995)\07 - Shoo Bee Doo Bee.wav
Peak level 99.4 %
Extraction speed 4.9 X
Track quality 100.0 %
Test CRC 64B1D870
Copy CRC 64B1D870
Track not present in AccurateRip database
Copy OK
Track 8
Filename C:\EAC Rips\Billy Wooten - Evening On The Canal (1995)\08 - Don Diablo.wav
Peak level 99.4 %
Extraction speed 4.7 X
Track quality 100.0 %
Test CRC 7DABD533
Copy CRC 7DABD533
Track not present in AccurateRip database
Copy OK
None of the tracks are present in the AccurateRip database
No errors occurred
End of status report
---- CUETools DB Plugin V2.1.6
[CTDB TOCID: KhPiMphg2uAh6FjBI4rkQiDKSPU-] disk not present in database
Submit result: KhPiMphg2uAh6FjBI4rkQiDKSPU- has been uploaded
==== Log checksum 66319B8F1E98C65049017DABC9C14B5A62909AD979078777E90FCB105BD0A3AA ====
 
Содержание индексной карты (.CUE)
REM GENRE Jazz
REM DATE 1995
REM DISCID 770B7208
REM COMMENT "ExactAudioCopy v1.0b6"
CATALOG 4995879937235
PERFORMER "Billy Wooten"
TITLE "Evening on the Canal"
FILE "01 - Want You to Be My Love.wav" WAVE
TRACK 01 AUDIO
TITLE "Want You to Be My Love"
PERFORMER "Billy Wooten"
INDEX 01 00:00:00
FILE "02 - Sugar Man.wav" WAVE
TRACK 02 AUDIO
TITLE "Sugar Man"
PERFORMER "Billy Wooten"
INDEX 01 00:00:00
TRACK 03 AUDIO
TITLE "Comingo de Amor"
PERFORMER "Billy Wooten"
INDEX 00 07:48:21
FILE "03 - Comingo de Amor.wav" WAVE
INDEX 01 00:00:00
FILE "04 - Mumba Caliente.wav" WAVE
TRACK 04 AUDIO
TITLE "Mumba Caliente"
PERFORMER "Billy Wooten"
INDEX 01 00:00:00
FILE "05 - Vocalese Majik.wav" WAVE
TRACK 05 AUDIO
TITLE "Vocalese Majik"
PERFORMER "Billy Wooten"
INDEX 01 00:00:00
FILE "06 - Mi Rosa Mujer.wav" WAVE
TRACK 06 AUDIO
TITLE "Mi Rosa Mujer"
PERFORMER "Billy Wooten"
INDEX 01 00:00:00
FILE "07 - Shoo Bee Doo Bee.wav" WAVE
TRACK 07 AUDIO
TITLE "Shoo Bee Doo Bee"
PERFORMER "Billy Wooten"
INDEX 01 00:00:00
FILE "08 - Don Diablo.wav" WAVE
TRACK 08 AUDIO
TITLE "Don Diablo"
PERFORMER "Billy Wooten"
INDEX 01 00:00:00
 
Отчет CUETools
[CUETools log; Date: 01.08.2015 23:20:05; Version: 2.1.5]
[CTDB TOCID: KhPiMphg2uAh6FjBI4rkQiDKSPU-] found.
Track | CTDB Status
1 | (1/1) Accurately ripped
2 | (1/1) Accurately ripped
3 | (1/1) Accurately ripped
4 | (1/1) Accurately ripped
5 | (1/1) Accurately ripped
6 | (1/1) Accurately ripped
7 | (1/1) Accurately ripped
8 | (1/1) Accurately ripped
[AccurateRip ID: 001041df-006a95ce-770b7208] disk not present in database.
Track Peak [ CRC32 ] [W/O NULL] [ LOG ]
-- 99,5 [D0ACCF94] [BC863FE2]
01 99,4 [EA7937BB] [4BB89889] CRC32
02 99,4 [857FA4DE] [8D0EBFEA] CRC32
03 99,4 [D558A13A] [FE6B22D4] CRC32
04 99,5 [0FE51383] [A825DFF9] CRC32
05 99,4 [19ADF136] [D5B75387] CRC32
06 99,4 [CA80D9B4] [45610B27] CRC32
07 99,4 [64B1D870] [13DB0D86] CRC32
08 99,4 [7DABD533] [89EF5D22] CRC32
 
Об альбоме (сборнике)
A rare live set from vibes legend Billy Wooten – recorded sometime in the mid 90s, but with a funky feel that's like his best music from the 70s! The Vida Bole Ensemble backs Billy up – giving him a tight large group push that makes for plenty of great rhythms – both funky drums and Latin touches on percussion – the last of which are especially nice, and really do great things alongside the vibes! Billy's the lead man on solos throughout – although the album does feature some nice tenor from David Young, and both alto and flute from George Sparky Smith – players who really help deepen the sound of the record. Production is great – straightforward and simple – and the whole thing's got a classic feel that makes it a great addition to Wooten's too-small catalog! Titles include "Mi Rosa Mujer", "Shoo Bee Doo Bee", "Want You To Be My Love", "Sugar Man", "Don Diablo", "Mumba Caliente", and "Comingo De Amor".
 
Состав
George "Sparky" Smith - alto saxophone, flute
Mike McFarland, Ivan Benson - Latin percussion
Larry Clark - percussion
Jonathon - wood bass
Miles Lloyd - piano
Clifford Ratliff, Carlos Negron, Mike Schofield - trumpet
James Pratt, Jim Hicks - trombone
David Young - tenor saxophone
Alonzo "Pookie" Johnson - alto saxophone
Dave Laskey - guitar
Rudy Finnell, Willie Ramos, Jerome Cheatham - bass
Billy Wooten - vibes
Приватный:
Нет (DHT включён)
Размер:
271.43 Мб (284,616,682 байт) » файлов: 19
Участники:
0 раздают, 0 качают (0 участников всего)
Внешние участники:
3 раздают, 1 качают (4 участников всего) [ Обновить ]
No seeders - write personal message to user M0p94ok. Нет сидеров - пишите личное сообщение пользователю M0p94ok.
07:24
54
Нет комментариев. Ваш будет первым!