Поиск

(Jazz-Funk) [CD] Jiro Inagaki & His Soul Media - Head Rock - 1970 (2007 Japan Edition), FLAC (tracks+.cue), lossless

(Jazz-Funk) [CD] Jiro Inagaki & His Soul Media - Head Rock - 1970 (2007 Japan Edition), FLAC (tracks+.cue), lossless
Треклист:
Jiro Inagaki & His Soul Media - Head Rock
Жанр: Jazz-Funk
Носитель: CD
Страна-производитель диска (релиза): Япония
Год издания: 2007
Издатель (лейбл): P-Vine/Deep Jazz Reality
Номер по каталогу: PCD-7285
Аудиокодек: FLAC (*.flac)
Тип рипа: tracks+.cue
Битрейт аудио: lossless
Продолжительность: 40:05
Источник (релизер): wikieup (what)
Наличие сканов в содержимом раздачи: нет
Треклист:
01. The Vamp (Galper) - 5:23
02. Twenty One (Kawasaki) - 5:33
03. Spoonful (Dixon) - 9:18
04. Back to Rack (Sato) - 3:31
05. High Jack (Imada) - 4:16
06. The Ground for Peace (Arakawa) - 7:43
07. Head Rock (Inagaki) - 4:21
Состав:
Jiro Inagaki - tenor saxophone
Tetsuo Fushimi - trumpet
Ryo Kawasaki - guitar
Masaru Imada - organ
Yasuo Arakawa - bass
Sadakazu Tabata - drums
Recorded at Tokyo Studio Center on August 6-7, 1970.
 
Лог создания рипа
Exact Audio Copy V1.0 beta 3 from 29. August 2011
EAC extraction logfile from 21. May 2013, 9:32
Jiro Inagaki & His Soul Media / Head Rock [2007 Mini LP Reissue]
Used drive : TSSTcorpDVD-ROM TS-U333B Adapter: 0 ID: 1
Read mode : Secure
Utilize accurate stream : Yes
Defeat audio cache : Yes
Make use of C2 pointers : No
Read offset correction : 6
Overread into Lead-In and Lead-Out : No
Fill up missing offset samples with silence : Yes
Delete leading and trailing silent blocks : No
Null samples used in CRC calculations : Yes
Used interface : Native Win32 interface for Win NT & 2000
Gap handling : Appended to previous track
Used output format : User Defined Encoder
Selected bitrate : 1024 kBit/s
Quality : High
Add ID3 tag : No
Command line compressor : C:\Program Files\Exact Audio Copy\Flac\flac.exe
Additional command line options : -8 -V -T "ARTIST=%artist%" -T "TITLE=%title%" -T "ALBUM=%albumtitle%" -T "DATE=%year%" -T "TRACKNUMBER=%tracknr%" -T "GENRE=%genre%" -T "PERFORMER=%albuminterpret%" -T "COMPOSER=%composer%" %haslyrics%--tag-from-file=LYRICS="%lyricsfile%"%haslyrics% -T "ALBUMARTIST=%albumartist%" -T "DISCNUMBER=%cdnumber%" -T "TOTALDISCS=%totalcds%" -T "TOTALTRACKS=%numtracks%" -T "COMMENT=%comment%" %source% -o %dest%
TOC of the extracted CD
Track | Start | Length | Start sector | End sector
---------------------------------------------------------
1 | 0:00.00 | 5:22.61 | 0 | 24210
2 | 5:22.61 | 5:33.10 | 24211 | 49195
3 | 10:55.71 | 9:17.44 | 49196 | 91014
4 | 20:13.40 | 3:30.54 | 91015 | 106818
5 | 23:44.19 | 4:16.00 | 106819 | 126018
6 | 28:00.19 | 7:43.32 | 126019 | 160775
7 | 35:43.51 | 4:20.56 | 160776 | 180331
Track 1
Filename C:\EAC Rips\01 - The Vamp.wav
Pre-gap length 0:00:02.00
Peak level 98.8 %
Extraction speed 3.0 X
Track quality 100.0 %
Test CRC 8A888DB0
Copy CRC 8A888DB0
Accurately ripped (confidence 1) [7C096A19] (AR v1)
Copy OK
Track 2
Filename C:\EAC Rips\02 - Twenty One.wav
Peak level 99.3 %
Extraction speed 3.4 X
Track quality 100.0 %
Test CRC AA103FF6
Copy CRC AA103FF6
Accurately ripped (confidence 1) [3894555B] (AR v1)
Copy OK
Track 3
Filename C:\EAC Rips\03 - Spoonful.wav
Peak level 99.8 %
Extraction speed 4.0 X
Track quality 100.0 %
Test CRC 833E6E5B
Copy CRC 833E6E5B
Accurately ripped (confidence 1) [912B4E7C] (AR v1)
Copy OK
Track 4
Filename C:\EAC Rips\04 - Back To Rack.wav
Pre-gap length 0:00:00.52
Peak level 98.7 %
Extraction speed 3.8 X
Track quality 100.0 %
Test CRC EB50DCA3
Copy CRC EB50DCA3
Accurately ripped (confidence 1) [792D1EFE] (AR v1)
Copy OK
Track 5
Filename C:\EAC Rips\05 - High Jack.wav
Peak level 99.2 %
Extraction speed 4.1 X
Track quality 100.0 %
Test CRC F4E0E88C
Copy CRC F4E0E88C
Accurately ripped (confidence 1) [0EB27B07] (AR v1)
Copy OK
Track 6
Filename C:\EAC Rips\06 - The Ground For Peace.wav
Peak level 99.9 %
Extraction speed 4.6 X
Track quality 100.0 %
Test CRC BF682C07
Copy CRC BF682C07
Accurately ripped (confidence 1) [0F1E01B3] (AR v1)
Copy OK
Track 7
Filename C:\EAC Rips\07 - Head Rock.wav
Peak level 99.6 %
Extraction speed 4.6 X
Track quality 100.0 %
Test CRC 96630214
Copy CRC 96630214
Accurately ripped (confidence 1) [035B1566] (AR v1)
Copy OK
All tracks accurately ripped
No errors occurred
End of status report
==== Log checksum CCD53137FE82A196BE057C0CAD1B533BBA31D9D8C95A2DC6F29F39F6CE1B4E84 ====
 
Содержание индексной карты (.CUE)
REM GENRE Jazz
REM DATE 1970
REM DISCID 50096407
REM COMMENT "ExactAudioCopy v1.0b3"
PERFORMER "Jiro Inagaki"
TITLE "Head Rock"
FILE "01 - The Vamp.wav" WAVE
TRACK 01 AUDIO
TITLE "The Vamp"
PERFORMER "Jiro Inagaki"
INDEX 01 00:00:00
FILE "02 - Twenty One.wav" WAVE
TRACK 02 AUDIO
TITLE "Twenty One"
PERFORMER "Jiro Inagaki"
INDEX 01 00:00:00
FILE "03 - Spoonful.wav" WAVE
TRACK 03 AUDIO
TITLE "Spoonful"
PERFORMER "Jiro Inagaki"
INDEX 01 00:00:00
TRACK 04 AUDIO
TITLE "Back to Rack"
PERFORMER "Jiro Inagaki"
INDEX 00 09:17:05
FILE "04 - Back to Rack.wav" WAVE
INDEX 01 00:00:00
FILE "05 - High Jack.wav" WAVE
TRACK 05 AUDIO
TITLE "High Jack"
PERFORMER "Jiro Inagaki"
INDEX 01 00:00:00
FILE "06 - The Ground for Peace.wav" WAVE
TRACK 06 AUDIO
TITLE "The Ground for Peace"
PERFORMER "Jiro Inagaki"
INDEX 01 00:00:00
FILE "07 - Head Rock.wav" WAVE
TRACK 07 AUDIO
TITLE "Head Rock"
PERFORMER "Jiro Inagaki"
INDEX 01 00:00:00
 
Отчет CUETools
[CUETools log; Date: 01.08.2015 17:16:45; Version: 2.1.5]
[CTDB TOCID: rqeA0DKf9nKx06rUi2dmWsvTLb4-] found.
Track | CTDB Status
1 | (1/1) Accurately ripped
2 | (1/1) Accurately ripped
3 | (1/1) Accurately ripped
4 | (1/1) Accurately ripped
5 | (1/1) Accurately ripped
6 | (1/1) Accurately ripped
7 | (1/1) Accurately ripped
[AccurateRip ID: 000b4440-00436b40-50096407] found.
Track [ CRC | V2 ] Status
01 [7c096a19|3a760485] (1+1/2) Accurately ripped
02 [3894555b|4376b9a3] (1+1/2) Accurately ripped
03 [912b4e7c|084a8eeb] (1+1/2) Accurately ripped
04 [792d1efe|b93e92a2] (1+1/2) Accurately ripped
05 [0eb27b07|bdf79915] (1+1/2) Accurately ripped
06 [0f1e01b3|ce8aba06] (1+1/2) Accurately ripped
07 [035b1566|d9f5b1a4] (1+1/2) Accurately ripped
Track Peak [ CRC32 ] [W/O NULL] [ LOG ]
-- 99,9 [0422D4DC] [C1B13564]
01 98,8 [8A888DB0] [4233AB6F] CRC32
02 99,3 [AA103FF6] [E3E50FD6] CRC32
03 99,8 [833E6E5B] [B89C8764] CRC32
04 98,7 [EB50DCA3] [4A600328] CRC32
05 99,2 [F4E0E88C] [CCDFF2D7] CRC32
06 99,9 [BF682C07] [72AE934F] CRC32
07 99,6 [96630214] [4568A46B] CRC32
 
Об альбоме (сборнике)
Ultimate & most wanted japanese rare groove recorded by the saxophonist Jiro Inagaki, one of the main actor of the Japanese Jazz Rock & Progressive scene. Recorded in 1969 and released under the famous Takt Jazz Series from Nippon Columbia, Head Rock includes psychedelic guitar effects, great drum breaks, acid & electronic organ sounds, performed by The Soul Media, featuring some future japanese jazz great names, such as Ryo Kawasaki (in his first professional appearance), Yasuo Arakawa, Masaru Imada or Tetsuo Fushimi. Titles includes cover & original songs from Hal Galper (The Vamp), and Willie Dixon (an amazing version of Spoonful), five composed by Ryo Kawasaki (Twenty One), Masaru Imada (High Jack), Yasuo Arakawa (The Ground For Peace) and Jiro (Head Rock). All tracks arranged by Jiro Inagaki.
Приватный:
Нет (DHT включён)
Размер:
275.05 Мб (288,408,791 байт) » файлов: 12
Участники:
0 раздают, 0 качают (0 участников всего)
Внешние участники:
5 раздают, 2 качают (7 участников всего) [ Обновить ]
Есть вопросы - пишите личное сообщение пользователю M0p94ok.
07:23
57
Нет комментариев. Ваш будет первым!