Поиск

(Soul) [CD] Barry White - All-Time Greatest Hits - 1994, FLAC (tracks+.cue), lossless

(Soul) [CD] Barry White - All-Time Greatest Hits - 1994, FLAC (tracks+.cue), lossless
Треклист:
Barry White - All-Time Greatest Hits Жанр: Soul
Носитель: CD
Год издания: 1994
Издатель (лейбл): PolyGram Records/Mercury
Номер по каталогу: 522 459-2
Аудиокодек: FLAC (*.flac)
Тип рипа: tracks+.cue
Битрейт аудио: lossless
Продолжительность: 77:36
Rip by alekow
Наличие сканов в содержимом раздачи: да
Треклист:
01. Love's Theme (4:12)
02. I'm Gonna Love You Just A Little More, Baby (4:02)
03. I've Got So Much To Give (5:21)
04. Never, Never Gonna Give You Up (4:10)
05. Honey Please, Can't Ya See (3:17)
06. Can't Get Enough Of Your Love, Babe (3:55)
07. You're The First, The Last, My Everything (3:29)
08. What Am I Gonna Do With You (3:38)
09. I'll Do For You Anthing You Want Me To (4:14)
10. Let The Music Play (3:35)
11. You See The Trouble With Me (3:25)
12. Baby, We Better Try To Get It Together (4:31)
13. Don't Make Me Wait Too Long (3:24)
14. I'm Qualified To Satisfy You (3:12)
15. It's Ecstasy When You Lay Down Next To Me (3:29)
16. Playing Your Game, Baby (3:40)
17. Oh, What A Night For Dancing (3:19)
18. Your Sweetness Is My Weakness (4:16)
19. Just The Way You Are (4:14)
20. Satin Soul (4:13)
 
 
Лог создания рипа
Exact Audio Copy V1.0 beta 1 from 15. November 2010
EAC extraction logfile from 14. June 2015, 10:18
Barry White / All-Time Greatest Hits
Used drive : TSSTcorpCDDVDW SH-224DB Adapter: 1 ID: 0
Read mode : Secure
Utilize accurate stream : Yes
Defeat audio cache : Yes
Make use of C2 pointers : No
Read offset correction : 6
Overread into Lead-In and Lead-Out : No
Fill up missing offset samples with silence : Yes
Delete leading and trailing silent blocks : No
Null samples used in CRC calculations : Yes
Used interface : Native Win32 interface for Win NT & 2000
Gap handling : Appended to previous track
Used output format : User Defined Encoder
Selected bitrate : 896 kBit/s
Quality : High
Add ID3 tag : No
Command line compressor : C:\Program Files\Exact Audio Copy\Flac\flac.exe
Additional command line options : -6 -V -T "ARTIST=%a" -T "TITLE=%t" -T "ALBUM=%g" -T "DATE=%y" -T "TRACKNUMBER=%n" -T "GENRE=%m" -T "COMMENT=%e" %s -o %d
TOC of the extracted CD
Track | Start | Length | Start sector | End sector
---------------------------------------------------------
1 | 0:00.00 | 4:11.68 | 0 | 18892
2 | 4:11.68 | 4:02.20 | 18893 | 37062
3 | 8:14.13 | 5:21.10 | 37063 | 61147
4 | 13:35.23 | 4:10.17 | 61148 | 79914
5 | 17:45.40 | 3:17.25 | 79915 | 94714
6 | 21:02.65 | 3:55.30 | 94715 | 112369
7 | 24:58.20 | 3:28.70 | 112370 | 128039
8 | 28:27.15 | 3:38.28 | 128040 | 144417
9 | 32:05.43 | 4:14.22 | 144418 | 163489
10 | 36:19.65 | 3:34.40 | 163490 | 179579
11 | 39:54.30 | 3:24.48 | 179580 | 194927
12 | 43:19.03 | 4:30.52 | 194928 | 215229
13 | 47:49.55 | 3:24.10 | 215230 | 230539
14 | 51:13.65 | 3:12.13 | 230540 | 244952
15 | 54:26.03 | 3:28.47 | 244953 | 260599
16 | 57:54.50 | 3:39.65 | 260600 | 277089
17 | 61:34.40 | 3:18.68 | 277090 | 292007
18 | 64:53.33 | 4:15.57 | 292008 | 311189
19 | 69:09.15 | 4:13.50 | 311190 | 330214
20 | 73:22.65 | 4:13.00 | 330215 | 349189
Track 1
Filename C:\New Folder\01 - Love's Theme.wav
Pre-gap length 0:00:02.00
Peak level 94.2 %
Extraction speed 1.9 X
Track quality 100.0 %
Test CRC 020D289A
Copy CRC 020D289A
Accurately ripped (confidence 17) [3E24307F]
Copy OK
Track 2
Filename C:\New Folder\02 - I'm Gonna Love You Just A Little More, Baby.wav
Pre-gap length 0:00:02.45
Peak level 98.6 %
Extraction speed 2.1 X
Track quality 100.0 %
Test CRC A887C2E6
Copy CRC A887C2E6
Accurately ripped (confidence 16) [07AF85CF]
Copy OK
Track 3
Filename C:\New Folder\03 - I've Got So Much To Give.wav
Pre-gap length 0:00:02.73
Peak level 100.0 %
Extraction speed 2.1 X
Track quality 99.9 %
Test CRC 16ED348D
Copy CRC 16ED348D
Accurately ripped (confidence 16) [95FAE6BE]
Copy OK
Track 4
Filename C:\New Folder\04 - Never, Never Gonna Give You Up.wav
Pre-gap length 0:00:02.45
Peak level 95.8 %
Extraction speed 2.5 X
Track quality 100.0 %
Test CRC FD92C5D7
Copy CRC FD92C5D7
Accurately ripped (confidence 16) [13168266]
Copy OK
Track 5
Filename C:\New Folder\05 - Honey Please, Can't Ya See.wav
Pre-gap length 0:00:02.72
Peak level 100.0 %
Extraction speed 2.5 X
Track quality 100.0 %
Test CRC BBE61C74
Copy CRC BBE61C74
Accurately ripped (confidence 16) [BCD1B58B]
Copy OK
Track 6
Filename C:\New Folder\06 - Can't Get Enough Of Your Love, Babe.wav
Pre-gap length 0:00:02.72
Peak level 93.5 %
Extraction speed 2.7 X
Track quality 100.0 %
Test CRC 489F223C
Copy CRC 489F223C
Accurately ripped (confidence 16) [7173746C]
Copy OK
Track 7
Filename C:\New Folder\07 - You're The First, The Last, My Everything.wav
Pre-gap length 0:00:02.70
Peak level 70.5 %
Extraction speed 2.8 X
Track quality 100.0 %
Test CRC 2BA5A5FC
Copy CRC 2BA5A5FC
Accurately ripped (confidence 17) [0E8C3CBE]
Copy OK
Track 8
Filename C:\New Folder\08 - What Am I Gonna Do With You.wav
Pre-gap length 0:00:04.22
Peak level 97.5 %
Extraction speed 2.9 X
Track quality 100.0 %
Test CRC 1260EB9C
Copy CRC 1260EB9C
Accurately ripped (confidence 16) [2653C117]
Copy OK
Track 9
Filename C:\New Folder\09 - I'll Do For You Anthing You Want Me To.wav
Pre-gap length 0:00:03.70
Peak level 100.0 %
Extraction speed 3.1 X
Track quality 100.0 %
Test CRC F5337F14
Copy CRC F5337F14
Accurately ripped (confidence 16) [3A4F1F3F]
Copy OK
Track 10
Filename C:\New Folder\10 - Let The Music Play.wav
Pre-gap length 0:00:03.57
Peak level 99.7 %
Extraction speed 2.7 X
Track quality 99.9 %
Test CRC 7FB5A1F3
Copy CRC 7FB5A1F3
Accurately ripped (confidence 16) [2B8AC38E]
Copy OK
Track 11
Filename C:\New Folder\11 - You See The Trouble With Me.wav
Pre-gap length 0:00:03.57
Peak level 100.0 %
Extraction speed 3.2 X
Track quality 100.0 %
Test CRC 1EFD1760
Copy CRC 1EFD1760
Accurately ripped (confidence 16) [525B599D]
Copy OK
Track 12
Filename C:\New Folder\12 - Baby, We Better Try To Get It Together.wav
Pre-gap length 0:00:03.58
Peak level 91.0 %
Extraction speed 3.5 X
Track quality 100.0 %
Test CRC 630F8A54
Copy CRC 630F8A54
Accurately ripped (confidence 16) [02393448]
Copy OK
Track 13
Filename C:\New Folder\13 - Don't Make Me Wait Too Long.wav
Pre-gap length 0:00:03.57
Peak level 94.5 %
Extraction speed 3.4 X
Track quality 100.0 %
Test CRC D2BFE1A0
Copy CRC D2BFE1A0
Accurately ripped (confidence 16) [C584F26A]
Copy OK
Track 14
Filename C:\New Folder\14 - I'm Qualified To Satisfy You.wav
Pre-gap length 0:00:03.57
Peak level 81.9 %
Extraction speed 3.4 X
Track quality 100.0 %
Test CRC 48C906C4
Copy CRC 48C906C4
Accurately ripped (confidence 16) [40C783C4]
Copy OK
Track 15
Filename C:\New Folder\15 - It's Ecstasy When You Lay Down Next To Me.wav
Pre-gap length 0:00:03.55
Peak level 95.1 %
Extraction speed 3.6 X
Track quality 100.0 %
Test CRC 1405F477
Copy CRC 1405F477
Accurately ripped (confidence 16) [0404AC11]
Copy OK
Track 16
Filename C:\New Folder\16 - Playing Your Game, Baby.wav
Pre-gap length 0:00:02.57
Peak level 92.5 %
Extraction speed 3.7 X
Track quality 100.0 %
Test CRC 7899F46C
Copy CRC 7899F46C
Accurately ripped (confidence 16) [F76C55A6]
Copy OK
Track 17
Filename C:\New Folder\17 - Oh, What A Night For Dancing.wav
Pre-gap length 0:00:02.57
Peak level 87.7 %
Extraction speed 3.1 X
Track quality 99.9 %
Test CRC 6886216F
Copy CRC 6886216F
Accurately ripped (confidence 16) [293BB909]
Copy OK
Track 18
Filename C:\New Folder\18 - Your Sweetness Is My Weakness.wav
Pre-gap length 0:00:02.58
Peak level 80.1 %
Extraction speed 3.9 X
Track quality 100.0 %
Test CRC 19BAD0CD
Copy CRC 19BAD0CD
Accurately ripped (confidence 15) [EA81EB90]
Copy OK
Track 19
Filename C:\New Folder\19 - Just The Way You Are.wav
Pre-gap length 0:00:03.20
Peak level 89.8 %
Extraction speed 3.5 X
Track quality 99.9 %
Test CRC 1F1187A8
Copy CRC 1F1187A8
Accurately ripped (confidence 16) [E07638DB]
Copy OK
Track 20
Filename C:\New Folder\20 - Satin Soul.wav
Pre-gap length 0:00:03.20
Peak level 78.4 %
Extraction speed 4.1 X
Track quality 100.0 %
Test CRC 86281E59
Copy CRC 86281E59
Accurately ripped (confidence 16) [49CF56B7]
Copy OK
All tracks accurately ripped
No errors occurred
End of status report
==== Log checksum 0F522731FCA3658A3F136B18F160E8BD9EF1193F6E33CE967C4771E682B7060F ====
 
Содержание индексной карты (.CUE)
REM GENRE Funk
REM DATE 1994
REM DISCID 2E122F14
REM COMMENT "ExactAudioCopy v1.0b1"
PERFORMER "Barry White"
TITLE "All-Time Greatest Hits"
FILE "01 - Love's Theme.wav" WAVE
TRACK 01 AUDIO
TITLE "Love's Theme"
PERFORMER "Barry White"
INDEX 01 00:00:00
TRACK 02 AUDIO
TITLE "I'm Gonna Love You Just A Little More, Baby"
PERFORMER "Barry White"
INDEX 00 04:09:23
FILE "02 - I'm Gonna Love You Just A Little More, Baby.wav" WAVE
INDEX 01 00:00:00
TRACK 03 AUDIO
TITLE "I've Got So Much To Give"
PERFORMER "Barry White"
INDEX 00 03:59:22
FILE "03 - I've Got So Much To Give.wav" WAVE
INDEX 01 00:00:00
TRACK 04 AUDIO
TITLE "Never, Never Gonna Give You Up"
PERFORMER "Barry White"
INDEX 00 05:18:40
FILE "04 - Never, Never Gonna Give You Up.wav" WAVE
INDEX 01 00:00:00
TRACK 05 AUDIO
TITLE "Honey Please, Can't Ya See"
PERFORMER "Barry White"
INDEX 00 04:07:20
FILE "05 - Honey Please, Can't Ya See.wav" WAVE
INDEX 01 00:00:00
TRACK 06 AUDIO
TITLE "Can't Get Enough Of Your Love, Babe"
PERFORMER "Barry White"
INDEX 00 03:14:28
FILE "06 - Can't Get Enough Of Your Love, Babe.wav" WAVE
INDEX 01 00:00:00
TRACK 07 AUDIO
TITLE "You're The First, The Last, My Everything"
PERFORMER "Barry White"
INDEX 00 03:52:35
FILE "07 - You're The First, The Last, My Everything.wav" WAVE
INDEX 01 00:00:00
TRACK 08 AUDIO
TITLE "What Am I Gonna Do With You"
PERFORMER "Barry White"
INDEX 00 03:24:48
FILE "08 - What Am I Gonna Do With You.wav" WAVE
INDEX 01 00:00:00
TRACK 09 AUDIO
TITLE "I'll Do For You Anthing You Want Me To"
PERFORMER "Barry White"
INDEX 00 03:34:33
FILE "09 - I'll Do For You Anthing You Want Me To.wav" WAVE
INDEX 01 00:00:00
TRACK 10 AUDIO
TITLE "Let The Music Play"
PERFORMER "Barry White"
INDEX 00 04:10:40
FILE "10 - Let The Music Play.wav" WAVE
INDEX 01 00:00:00
TRACK 11 AUDIO
TITLE "You See The Trouble With Me"
PERFORMER "Barry White"
INDEX 00 03:30:58
FILE "11 - You See The Trouble With Me.wav" WAVE
INDEX 01 00:00:00
TRACK 12 AUDIO
TITLE "Baby, We Better Try To Get It Together"
PERFORMER "Barry White"
INDEX 00 03:20:65
FILE "12 - Baby, We Better Try To Get It Together.wav" WAVE
INDEX 01 00:00:00
TRACK 13 AUDIO
TITLE "Don't Make Me Wait Too Long"
PERFORMER "Barry White"
INDEX 00 04:26:70
FILE "13 - Don't Make Me Wait Too Long.wav" WAVE
INDEX 01 00:00:00
TRACK 14 AUDIO
TITLE "I'm Qualified To Satisfy You"
PERFORMER "Barry White"
INDEX 00 03:20:28
FILE "14 - I'm Qualified To Satisfy You.wav" WAVE
INDEX 01 00:00:00
TRACK 15 AUDIO
TITLE "It's Ecstasy When You Lay Down Next To Me"
PERFORMER "Barry White"
INDEX 00 03:08:33
FILE "15 - It's Ecstasy When You Lay Down Next To Me.wav" WAVE
INDEX 01 00:00:00
TRACK 16 AUDIO
TITLE "Playing Your Game, Baby"
PERFORMER "Barry White"
INDEX 00 03:25:65
FILE "16 - Playing Your Game, Baby.wav" WAVE
INDEX 01 00:00:00
TRACK 17 AUDIO
TITLE "Oh, What A Night For Dancing"
PERFORMER "Barry White"
INDEX 00 03:37:08
FILE "17 - Oh, What A Night For Dancing.wav" WAVE
INDEX 01 00:00:00
TRACK 18 AUDIO
TITLE "Your Sweetness Is My Weakness"
PERFORMER "Barry White"
INDEX 00 03:16:10
FILE "18 - Your Sweetness Is My Weakness.wav" WAVE
INDEX 01 00:00:00
TRACK 19 AUDIO
TITLE "Just The Way You Are"
PERFORMER "Barry White"
INDEX 00 04:12:37
FILE "19 - Just The Way You Are.wav" WAVE
INDEX 01 00:00:00
TRACK 20 AUDIO
TITLE "Satin Soul"
PERFORMER "Barry White"
INDEX 00 04:10:30
FILE "20 - Satin Soul.wav" WAVE
INDEX 01 00:00:00
Приватный:
Нет (DHT включён)
Размер:
578.50 Мб (606,599,019 байт) » файлов: 34
Участники:
0 раздают, 0 качают (0 участников всего)
Внешние участники:
5 раздают, 1 качают (6 участников всего) [ Обновить ]
Есть вопросы - пишите личное сообщение пользователю M0p94ok.
07:24
232
Нет комментариев. Ваш будет первым!