Поиск

(Soul, Folk, Indie) [CD] Lianne La Havas - Blood - 2015, FLAC (image+.cue), lossless

(Soul, Folk, Indie) [CD] Lianne La Havas - Blood - 2015, FLAC (image+.cue), lossless
Треклист:
Lianne La Havas - Blood
Жанр: Soul, Folk, Indie
Носитель: CD
Страна-производитель диска (релиза): UK
Год издания: 2015
Издатель (лейбл): Warner Music
Номер по каталогу: 0825646117802
Страна исполнителя (группы): UK
Аудиокодек: FLAC (*.flac)
Тип рипа: image+.cue
Битрейт аудио: lossless
Продолжительность: 00:40:37
Источник (релизер): UseNet
Наличие сканов в содержимом раздачи: да
http://www.liannelahavas.com/
http://www.youtube.com/user/liannelahavas
Треклист:
01. Unstoppable [5:30]
02. Green & Gold [4:38]
03. What You Don't Do [3:41]
04. Tokyo [4:29]
05. Wonderful [4:16]
06. Midnight [3:30]
07. Grow [3:39]
08. Ghost [3:44]
09. Never Get Enough [3:22]
10. Good Goodbye [3:49]
 
Лог создания рипа
Exact Audio Copy V1.0 beta 6 from 9. April 2015
EAC extraction logfile from 2. August 2015, 15:33
Lianne La Havas / Blood
Used drive : hp CDDVDW SH-216DB Adapter: 1 ID: 0
Read mode : Secure
Utilize accurate stream : Yes
Defeat audio cache : Yes
Make use of C2 pointers : No
Read offset correction : 6
Overread into Lead-In and Lead-Out : No
Fill up missing offset samples with silence : Yes
Delete leading and trailing silent blocks : No
Null samples used in CRC calculations : Yes
Used interface : Native Win32 interface for Win NT & 2000
Used output format : Internal WAV Routines
Sample format : 44.100 Hz; 16 Bit; Stereo
TOC of the extracted CD
Track | Start | Length | Start sector | End sector
---------------------------------------------------------
1 | 0:00.00 | 5:30.08 | 0 | 24757
2 | 5:30.08 | 4:38.15 | 24758 | 45622
3 | 10:08.23 | 3:40.44 | 45623 | 62166
4 | 13:48.67 | 4:29.04 | 62167 | 82345
5 | 18:17.71 | 4:16.31 | 82346 | 101576
6 | 22:34.27 | 3:29.59 | 101577 | 117310
7 | 26:04.11 | 3:38.67 | 117311 | 133727
8 | 29:43.03 | 3:43.48 | 133728 | 150500
9 | 33:26.51 | 3:21.57 | 150501 | 165632
10 | 36:48.33 | 3:49.05 | 165633 | 182812
Range status and errors
Selected range
Filename E:\POST\Lianne La Havas - Blood.wav
Peak level 99.0 %
Extraction speed 5.0 X
Range quality 99.9 %
Test CRC 7A9933C3
Copy CRC 7A9933C3
Copy OK
No errors occurred
AccurateRip summary
Track 1 not present in database
Track 2 not present in database
Track 3 not present in database
Track 4 not present in database
Track 5 not present in database
Track 6 not present in database
Track 7 not present in database
Track 8 not present in database
Track 9 not present in database
Track 10 not present in database
None of the tracks are present in the AccurateRip database
End of status report
 
Содержание индексной карты (.CUE)
REM GENRE Pop
REM DATE 2015
REM DISCID 7409850A
REM COMMENT "ExactAudioCopy v1.0b6"
PERFORMER "Lianne La Havas"
TITLE "Blood"
FILE "Lianne La Havas - Blood.wav" WAVE
TRACK 01 AUDIO
TITLE "Unstoppable"
PERFORMER "Lianne La Havas"
INDEX 01 00:00:00
TRACK 02 AUDIO
TITLE "Green & Gold"
PERFORMER "Lianne La Havas"
INDEX 01 05:30:08
TRACK 03 AUDIO
TITLE "What You Don't Do"
PERFORMER "Lianne La Havas"
INDEX 01 10:08:23
TRACK 04 AUDIO
TITLE "Tokyo"
PERFORMER "Lianne La Havas"
INDEX 01 13:48:67
TRACK 05 AUDIO
TITLE "Wonderful"
PERFORMER "Lianne La Havas"
INDEX 01 18:17:71
TRACK 06 AUDIO
TITLE "Midnight"
PERFORMER "Lianne La Havas"
INDEX 01 22:34:27
TRACK 07 AUDIO
TITLE "Grow"
PERFORMER "Lianne La Havas"
INDEX 01 26:04:11
TRACK 08 AUDIO
TITLE "Ghost"
PERFORMER "Lianne La Havas"
INDEX 01 29:43:03
TRACK 09 AUDIO
TITLE "Never Get Enough"
PERFORMER "Lianne La Havas"
INDEX 01 33:26:51
TRACK 10 AUDIO
TITLE "Good Goodbye"
PERFORMER "Lianne La Havas"
INDEX 01 36:48:33
 
Лог проверки качества
fooCDtect - foobar2000 + auCDtect, baralgin.
auCDtect: CD records authenticity detector, version 0.8.2
Copyright (c) 2004 Oleg Berngardt. All rights reserved.
Copyright (c) 2004 Alexander Djourik. All rights reserved.
mode: 0
===========================================
Track: 01. Lianne La Havas - Unstoppable
Processing file: [01. Lianne La Havas - Unstoppable.aucdtect]
Detected average hi-boundary frequency: 2.021372e+004 Hz
Detected average lo-boundary frequency: 1.295153e+004 Hz
Detected average hi-cut frequency: 2.114701e+004 Hz
Detected average lo-cut frequency: 1.259400e+004 Hz
Maximum probablis boundary frequency: 2.189100e+004 Hz
Coefficient of nonlinearity of a phase: 1.891590e-001
First order smothness: 3.537377e-001
Second order smothness: 7.328632e-001
------------------------------------------------------------
This track looks like CDDA with probability 100%
===========================================
Track: 02. Lianne La Havas - Green & Gold
Processing file: [02. Lianne La Havas - Green & Gold.aucdtect]
Detected average hi-boundary frequency: 2.031761e+004 Hz
Detected average lo-boundary frequency: 1.300355e+004 Hz
Detected average hi-cut frequency: 2.121776e+004 Hz
Detected average lo-cut frequency: 1.216548e+004 Hz
Maximum probablis boundary frequency: 2.189100e+004 Hz
Coefficient of nonlinearity of a phase: 2.804332e-001
First order smothness: 4.175567e-001
Second order smothness: 6.184913e-001
------------------------------------------------------------
This track looks like CDDA with probability 99%
===========================================
Track: 03. Lianne La Havas - What You Don't Do
Processing file: [03. Lianne La Havas - What You Don't Do.aucdtect]
Detected average hi-boundary frequency: 2.015477e+004 Hz
Detected average lo-boundary frequency: 1.257225e+004 Hz
Detected average hi-cut frequency: 2.100547e+004 Hz
Detected average lo-cut frequency: 8.539582e+003 Hz
Maximum probablis boundary frequency: 2.189100e+004 Hz
Coefficient of nonlinearity of a phase: 1.538993e-001
First order smothness: 3.764211e-001
Second order smothness: 5.941053e-001
------------------------------------------------------------
This track looks like CDDA with probability 100%
===========================================
Track: 04. Lianne La Havas - Tokyo
Processing file: [04. Lianne La Havas - Tokyo.aucdtect]
Detected average hi-boundary frequency: 2.020202e+004 Hz
Detected average lo-boundary frequency: 1.233283e+004 Hz
Detected average hi-cut frequency: 2.085964e+004 Hz
Detected average lo-cut frequency: 9.176144e+003 Hz
Maximum probablis boundary frequency: 2.189100e+004 Hz
Coefficient of nonlinearity of a phase: 7.382400e-001
First order smothness: 4.269934e-001
Second order smothness: 6.037280e-001
------------------------------------------------------------
This track looks like CDDA with probability 100%
===========================================
Track: 05. Lianne La Havas - Wonderful
Processing file: [05. Lianne La Havas - Wonderful.aucdtect]
Detected average hi-boundary frequency: 2.023102e+004 Hz
Detected average lo-boundary frequency: 1.277227e+004 Hz
Detected average hi-cut frequency: 2.069100e+004 Hz
Detected average lo-cut frequency: 1.014730e+004 Hz
Maximum probablis boundary frequency: 2.189100e+004 Hz
Coefficient of nonlinearity of a phase: 1.324448e+000
First order smothness: 3.958711e-001
Second order smothness: 6.932271e-001
------------------------------------------------------------
This track looks like CDDA with probability 100%
===========================================
Track: 06. Lianne La Havas - Midnight
Processing file: [06. Lianne La Havas - Midnight.aucdtect]
Detected average hi-boundary frequency: 2.015400e+004 Hz
Detected average lo-boundary frequency: 1.297391e+004 Hz
Detected average hi-cut frequency: 2.113503e+004 Hz
Detected average lo-cut frequency: 8.957515e+003 Hz
Maximum probablis boundary frequency: 2.189100e+004 Hz
Coefficient of nonlinearity of a phase: 4.810890e-001
First order smothness: 3.846835e-001
Second order smothness: 5.891988e-001
------------------------------------------------------------
This track looks like CDDA with probability 100%
===========================================
Track: 07. Lianne La Havas - Grow
Processing file: [07. Lianne La Havas - Grow.aucdtect]
Detected average hi-boundary frequency: 2.016093e+004 Hz
Detected average lo-boundary frequency: 1.284787e+004 Hz
Detected average hi-cut frequency: 2.112037e+004 Hz
Detected average lo-cut frequency: 1.050240e+004 Hz
Maximum probablis boundary frequency: 2.189100e+004 Hz
Coefficient of nonlinearity of a phase: 7.725049e-001
First order smothness: 3.746288e-001
Second order smothness: 5.770047e-001
------------------------------------------------------------
This track looks like CDDA with probability 99%
===========================================
Track: 08. Lianne La Havas - Ghost
Processing file: [08. Lianne La Havas - Ghost.aucdtect]
Detected average hi-boundary frequency: 2.027256e+004 Hz
Detected average lo-boundary frequency: 1.232430e+004 Hz
Detected average hi-cut frequency: 2.018080e+004 Hz
Detected average lo-cut frequency: 9.163380e+003 Hz
Maximum probablis boundary frequency: 2.189100e+004 Hz
Coefficient of nonlinearity of a phase: 1.230457e+000
First order smothness: 3.924419e-001
Second order smothness: 6.777409e-001
------------------------------------------------------------
This track looks like CDDA with probability 76%
===========================================
Track: 09. Lianne La Havas - Never Get Enough
Processing file: [09. Lianne La Havas - Never Get Enough.aucdtect]
Detected average hi-boundary frequency: 2.019827e+004 Hz
Detected average lo-boundary frequency: 1.256394e+004 Hz
Detected average hi-cut frequency: 2.068404e+004 Hz
Detected average lo-cut frequency: 8.432857e+003 Hz
Maximum probablis boundary frequency: 2.189100e+004 Hz
Coefficient of nonlinearity of a phase: 4.736090e-001
First order smothness: 3.704556e-001
Second order smothness: 5.453290e-001
------------------------------------------------------------
This track looks like CDDA with probability 100%
===========================================
Track: 10. Lianne La Havas - Good Goodbye
Processing file: [10. Lianne La Havas - Good Goodbye.aucdtect]
Detected average hi-boundary frequency: 2.028020e+004 Hz
Detected average lo-boundary frequency: 1.236157e+004 Hz
Detected average hi-cut frequency: 2.051943e+004 Hz
Detected average lo-cut frequency: 1.073522e+004 Hz
Maximum probablis boundary frequency: 2.189100e+004 Hz
Coefficient of nonlinearity of a phase: 8.564406e-001
First order smothness: 3.984597e-001
Second order smothness: 7.211188e-001
------------------------------------------------------------
This track looks like CDDA with probability 87%
===========================================
 
Динамический диапазон
foobar2000 1.2.8 / Dynamic Range Meter 1.1.1
log date: 2015-08-03 00:48:45
--------------------------------------------------------------------------------
Analyzed: Lianne La Havas / Blood
--------------------------------------------------------------------------------
DR Peak RMS Duration Track
--------------------------------------------------------------------------------
DR6 -0.09 dB -7.52 dB 5:30 01-Unstoppable
DR5 -0.10 dB -7.07 dB 4:38 02-Green & Gold
DR5 -0.09 dB -7.56 dB 3:41 03-What You Don't Do
DR5 -0.09 dB -7.38 dB 4:29 04-Tokyo
DR8 -0.10 dB -10.47 dB 4:16 05-Wonderful
DR5 -0.09 dB -6.65 dB 3:30 06-Midnight
DR5 -0.09 dB -6.81 dB 3:39 07-Grow
DR11 -0.72 dB -15.44 dB 3:44 08-Ghost
DR4 -0.10 dB -7.44 dB 3:22 09-Never Get Enough
DR7 -0.10 dB -10.25 dB 3:49 10-Good Goodbye
--------------------------------------------------------------------------------
Number of tracks: 10
Official DR value: DR6
Samplerate: 44100 Hz
Channels: 2
Bits per sample: 16
Bitrate: 828 kbps
Codec: FLAC
================================================================================
другие форматы
Приватный:
Нет (DHT включён)
Размер:
252.96 Мб (265,247,526 байт) » файлов: 10
Участники:
0 раздают, 0 качают (0 участников всего)
Внешние участники:
9 раздают, 3 качают (12 участников всего) [ Обновить ]
Есть вопросы - пишите личное сообщение пользователю M0p94ok.
07:25
83
Нет комментариев. Ваш будет первым!