Поиск

(Funk, Soul) [CD] Four Tops - Keepers Of The Castle: Their Best 1972-1978 - 1997, FLAC (image+.cue), lossless

(Funk, Soul) [CD] Four Tops - Keepers Of The Castle: Their Best 1972-1978 - 1997, FLAC (image+.cue), lossless
Треклист:
Four Tops - Keepers Of The Castle: Their Best 1972-1978 Жанр: Funk, Soul
Носитель: CD
Год издания: 1997
Издатель (лейбл): MCA Records
Номер по каталогу: MCAD-11647
Аудиокодек: FLAC (*.flac)
Тип рипа: image+.cue
Битрейт аудио: lossless
Продолжительность: 54:16
Rip by firepower
Наличие сканов в содержимом раздачи: да
Треклист:
01. Ain't No Woman (Like The One I Got) (3:09)
02. Are You Man Enough? (3:28)
03. One Chain Don't Make No Prison (4:10)
04. Catfish (6:36)
05. Midnight Flower (4:13)
06. I Just Can't Get You Out Of My Mind (4:02)
07. I Can't Hold Out Much Longer (4:01)
08. Save It For A Rainy Day (3:38)
09. Love Music (3:38)
10. Sweet Understanding Love (3:04)
11. Seven Lonely Nights (2:59)
12. Inside A Brokenhearted Man (3:29)
13. Keeper Of The Castle (2:59)
14. We All Gotta Stick Together (4:49)
 
 
Лог создания рипа
Exact Audio Copy V0.99 prebeta 5 from 4. May 2009
EAC extraction logfile from 8. February 2011, 16:17
Four Tops / Keepers Of The Castle - Their Best 1972 To 1978
Used drive : LITE-ON LTR-52327S Adapter: 0 ID: 1
Read mode : Secure
Utilize accurate stream : Yes
Defeat audio cache : Yes
Make use of C2 pointers : No
Read offset correction : 6
Overread into Lead-In and Lead-Out : No
Fill up missing offset samples with silence : Yes
Delete leading and trailing silent blocks : No
Null samples used in CRC calculations : Yes
Used interface : Native Win32 interface for Win NT & 2000
Used output format : User Defined Encoder
Selected bitrate : 768 kBit/s
Quality : High
Add ID3 tag : No
Command line compressor : C:\Program Files\p2p\Exact Audio Copy 0.99pb5\Exact Audio Copy\wapet\wapet.exe
Additional command line options : -6 -V -T "ARTIST=%a" -T "TITLE=%t" -T "ALBUM=%g" -T "DATE=%y" -T "TRACKNUMBER=%n" -T "GENRE=%m" -T "COMMENT=%e" %s -o %d
TOC of the extracted CD
Track | Start | Length | Start sector | End sector
---------------------------------------------------------
1 | 0:00.00 | 3:09.17 | 0 | 14191
2 | 3:09.17 | 3:27.50 | 14192 | 29766
3 | 6:36.67 | 4:09.50 | 29767 | 48491
4 | 10:46.42 | 6:36.08 | 48492 | 78199
5 | 17:22.50 | 4:12.60 | 78200 | 97159
6 | 21:35.35 | 4:01.47 | 97160 | 115281
7 | 25:37.07 | 4:01.30 | 115282 | 133386
8 | 29:38.37 | 3:37.45 | 133387 | 149706
9 | 33:16.07 | 3:38.23 | 149707 | 166079
10 | 36:54.30 | 3:04.10 | 166080 | 179889
11 | 39:58.40 | 2:59.30 | 179890 | 193344
12 | 42:57.70 | 3:29.10 | 193345 | 209029
13 | 46:27.05 | 2:59.17 | 209030 | 222471
14 | 49:26.22 | 4:49.25 | 222472 | 244171
Range status and errors
Selected range
Filename D:\My Rips\Four Tops - Keepers Of The Castle - Their Best 1972 To 1978.wav
Peak level 100.0 %
Range quality 100.0 %
Test CRC C0536C9C
Copy CRC C0536C9C
Copy OK
No errors occurred
AccurateRip summary
Track 1 cannot be verified as accurate (confidence 2) [EF00ADBA], AccurateRip returned [D1762EC0]
Track 2 cannot be verified as accurate (confidence 2) [3575A810], AccurateRip returned [C9B5D889]
Track 3 cannot be verified as accurate (confidence 2) [37607E84], AccurateRip returned [16B13A48]
Track 4 cannot be verified as accurate (confidence 2) [59563A3F], AccurateRip returned [3A01F626]
Track 5 cannot be verified as accurate (confidence 2) [10E09167], AccurateRip returned [5E30BF7C]
Track 6 cannot be verified as accurate (confidence 2) [E350E61B], AccurateRip returned [DFA2E82F]
Track 7 cannot be verified as accurate (confidence 2) [BCE6F0A2], AccurateRip returned [4CF3CEED]
Track 8 cannot be verified as accurate (confidence 2) [49C15573], AccurateRip returned [5CEBA87F]
Track 9 cannot be verified as accurate (confidence 2) [D99C71DA], AccurateRip returned [56961128]
Track 10 cannot be verified as accurate (confidence 2) [DBC1BC87], AccurateRip returned [71F5CC3D]
Track 11 cannot be verified as accurate (confidence 2) [092ABFDB], AccurateRip returned [D20066BA]
Track 12 cannot be verified as accurate (confidence 2) [59D31A0B], AccurateRip returned [2B433912]
Track 13 cannot be verified as accurate (confidence 2) [5B3ECB65], AccurateRip returned [806A7C52]
Track 14 cannot be verified as accurate (confidence 2) [5886EC70], AccurateRip returned [2CB28645]
No tracks could be verified as accurate
You may have a different pressing from the one(s) in the database
End of status report
 
Содержание индексной карты (.CUE)
REM GENRE R&B
REM DATE 1997
REM DISCID E70CB70E
REM COMMENT "ExactAudioCopy v0.99pb5"
PERFORMER "Four Tops"
TITLE "Keepers Of The Castle: Their Best 1972-1978"
FILE "Four Tops - Keepers Of The Castle- Their Best 1972-1978.flac" WAVE
TRACK 01 AUDIO
TITLE "Ain't No Woman (Like The One I Got)"
PERFORMER "Four Tops"
INDEX 01 00:00:00
TRACK 02 AUDIO
TITLE "Are You Man Enough?"
PERFORMER "Four Tops"
INDEX 00 03:06:40
INDEX 01 03:09:17
TRACK 03 AUDIO
TITLE "One Chain Don't Make No Prison"
PERFORMER "Four Tops"
INDEX 00 06:35:17
INDEX 01 06:36:67
TRACK 04 AUDIO
TITLE "Catfish"
PERFORMER "Four Tops"
INDEX 00 10:43:65
INDEX 01 10:46:42
TRACK 05 AUDIO
TITLE "Midnight Flower"
PERFORMER "Four Tops"
INDEX 00 17:20:00
INDEX 01 17:22:50
TRACK 06 AUDIO
TITLE "I Just Can't Get You Out Of My Mind"
PERFORMER "Four Tops"
INDEX 00 21:32:57
INDEX 01 21:35:35
TRACK 07 AUDIO
TITLE "I Can't Hold Out Much Longer"
PERFORMER "Four Tops"
INDEX 00 25:34:32
INDEX 01 25:37:07
TRACK 08 AUDIO
TITLE "Save It For A Rainy Day"
PERFORMER "Four Tops"
INDEX 00 29:35:62
INDEX 01 29:38:37
TRACK 09 AUDIO
TITLE "Love Music"
PERFORMER "Four Tops"
INDEX 00 33:13:30
INDEX 01 33:16:07
TRACK 10 AUDIO
TITLE "Sweet Understanding Love"
PERFORMER "Four Tops"
INDEX 00 36:51:60
INDEX 01 36:54:30
TRACK 11 AUDIO
TITLE "Seven Lonely Nights"
PERFORMER "Four Tops"
INDEX 00 39:55:65
INDEX 01 39:58:40
TRACK 12 AUDIO
TITLE "Inside A Brokenhearted Man"
PERFORMER "Four Tops"
ISRC USMC17853025
INDEX 00 42:55:25
INDEX 01 42:57:70
TRACK 13 AUDIO
TITLE "Keeper Of The Castle"
PERFORMER "Four Tops"
INDEX 00 46:24:37
INDEX 01 46:27:05
TRACK 14 AUDIO
TITLE "We All Gotta Stick Together"
PERFORMER "Four Tops"
INDEX 00 49:23:50
INDEX 01 49:26:22
Приватный:
Нет (DHT включён)
Размер:
376.92 Мб (395,224,284 байт) » файлов: 12
Участники:
0 раздают, 0 качают (0 участников всего)
Внешние участники:
5 раздают, 1 качают (6 участников всего) [ Обновить ]
Есть вопросы - пишите личное сообщение пользователю M0p94ok.
07:25
54
Нет комментариев. Ваш будет первым!