Поиск

(Funk, Soul) [CD] Gene Dunlap - It's Just The Way I Feel / Party In Me - 2014, FLAC (tracks+.cue), lossless

(Funk, Soul) [CD] Gene Dunlap - It's Just The Way I Feel / Party In Me - 2014, FLAC (tracks+.cue), lossless
Треклист:
Gene Dunlap - It's Just The Way I Feel / Party In Me Жанр: Funk, Soul
Носитель: CD
Год издания: 2014
Издатель (лейбл): Expansion Records
Номер по каталогу: EXP2CD41
Аудиокодек: FLAC (*.flac)
Тип рипа: tracks+.cue
Битрейт аудио: lossless
Продолжительность: 71:49
Rip by JET 1
Наличие сканов в содержимом раздачи: да
Треклист:
01. The Intro (0:53)
02. Rock Radio (3:53)
03. Before You Break My Heart (6:09)
04. I Got You (6:06)
05. Love Dancin' (4:37)
06. It's Just The Way I Feel (4:55)
07. Should I Take Her Back, Should I Let Her Go (3:38)
08. Surest Things Can Change (5:41)
09. Party In Me (4:05)
10. Jam City (4:11)
11. Something Special (4:03)
12. This One's On Me (4:34)
13. Take My Love (5:09)
14. Our Moments Together (2:55)
15. Something Inside My Head (4:30)
16. Corner Pocket (1:40)
17. There Will Never Be Another (Like You) (4:50)
 
 
Лог создания рипа
Exact Audio Copy V1.0 beta 3 from 29. August 2011
EAC extraction logfile from 16. July 2015, 21:38
Gene Dunlap / It's Just The Way I Feel : Party In Me
Used drive : GENERIC CDRCB05 Adapter: 4 ID: 0
Read mode : Secure
Utilize accurate stream : Yes
Defeat audio cache : Yes
Make use of C2 pointers : No
Read offset correction : 102
Overread into Lead-In and Lead-Out : No
Fill up missing offset samples with silence : Yes
Delete leading and trailing silent blocks : No
Null samples used in CRC calculations : Yes
Used interface : Native Win32 interface for Win NT & 2000
Gap handling : Appended to previous track
Used output format : User Defined Encoder
Selected bitrate : 1024 kBit/s
Quality : High
Add ID3 tag : No
Command line compressor : C:\Program Files\FLAC\flac.exe
Additional command line options : -8 -V -T "ARTIST=%artist%" -T "TITLE=%title%" -T "ALBUM=%albumtitle%" -T "DATE=%year%" -T "TRACKNUMBER=%tracknr%" -T "GENRE=%genre%" -T "PERFORMER=%albuminterpret%" -T "COMPOSER=%composer%" %haslyrics%--tag-from-file=LYRICS="%lyricsfile%"%haslyrics% -T "ALBUMARTIST=%albumartist%" -T "DISCNUMBER=%cdnumber%" -T "TOTALDISCS=%totalcds%" -T "TOTALTRACKS=%numtracks%" -T "COMMENT=%comment%" %source% -o %dest%
TOC of the extracted CD
Track | Start | Length | Start sector | End sector
---------------------------------------------------------
1 | 0:00.00 | 0:52.54 | 0 | 3953
2 | 0:52.54 | 3:53.19 | 3954 | 21447
3 | 4:45.73 | 6:09.37 | 21448 | 49159
4 | 10:55.35 | 6:05.57 | 49160 | 76591
5 | 17:01.17 | 4:37.31 | 76592 | 97397
6 | 21:38.48 | 4:54.71 | 97398 | 119518
7 | 26:33.44 | 3:37.64 | 119519 | 135857
8 | 30:11.33 | 5:41.03 | 135858 | 161435
9 | 35:52.36 | 4:05.03 | 161436 | 179813
10 | 39:57.39 | 4:10.57 | 179814 | 198620
11 | 44:08.21 | 4:02.47 | 198621 | 216817
12 | 48:10.68 | 4:34.17 | 216818 | 237384
13 | 52:45.10 | 5:08.50 | 237385 | 260534
14 | 57:53.60 | 2:55.28 | 260535 | 273687
15 | 60:49.13 | 4:30.05 | 273688 | 293942
16 | 65:19.18 | 1:39.65 | 293943 | 301432
17 | 66:59.08 | 4:49.48 | 301433 | 323155
Track 1
Filename F:\POSTS\Gene Dunlap - It's Just The Way I Feel '81 Party In Me '81 (2014) {EXP2CD41}\01 - The Intro.wav
Pre-gap length 0:00:02.00
Peak level 86.4 %
Extraction speed 1.5 X
Track quality 100.0 %
Test CRC F1D518B7
Copy CRC F1D518B7
Accurately ripped (confidence 4) [475BDE1A] (AR v2)
Copy OK
Track 2
Filename F:\POSTS\Gene Dunlap - It's Just The Way I Feel '81 Party In Me '81 (2014) {EXP2CD41}\02 - Rock Radio.wav
Peak level 100.0 %
Extraction speed 2.4 X
Track quality 100.0 %
Test CRC 28EFE44A
Copy CRC 28EFE44A
Accurately ripped (confidence 4) [329FF61D] (AR v2)
Copy OK
Track 3
Filename F:\POSTS\Gene Dunlap - It's Just The Way I Feel '81 Party In Me '81 (2014) {EXP2CD41}\03 - Before You Break My Heart.wav
Pre-gap length 0:00:01.15
Peak level 99.6 %
Extraction speed 2.6 X
Track quality 99.9 %
Test CRC 6E3AA694
Copy CRC 6E3AA694
Accurately ripped (confidence 4) [C24917E4] (AR v2)
Copy OK
Track 4
Filename F:\POSTS\Gene Dunlap - It's Just The Way I Feel '81 Party In Me '81 (2014) {EXP2CD41}\04 - I Got You.wav
Pre-gap length 0:00:02.50
Peak level 99.6 %
Extraction speed 3.1 X
Track quality 100.0 %
Test CRC 5CC1D531
Copy CRC 5CC1D531
Accurately ripped (confidence 4) [0A6503B2] (AR v2)
Copy OK
Track 5
Filename F:\POSTS\Gene Dunlap - It's Just The Way I Feel '81 Party In Me '81 (2014) {EXP2CD41}\05 - Love Dancin'.wav
Pre-gap length 0:00:00.40
Peak level 100.0 %
Extraction speed 3.3 X
Track quality 100.0 %
Test CRC 97563014
Copy CRC 97563014
Accurately ripped (confidence 4) [718BB493] (AR v2)
Copy OK
Track 6
Filename F:\POSTS\Gene Dunlap - It's Just The Way I Feel '81 Party In Me '81 (2014) {EXP2CD41}\06 - It's Just The Way I Feel.wav
Pre-gap length 0:00:01.55
Peak level 99.6 %
Extraction speed 3.5 X
Track quality 100.0 %
Test CRC EB0D232F
Copy CRC EB0D232F
Accurately ripped (confidence 4) [DB2EAD6C] (AR v2)
Copy OK
Track 7
Filename F:\POSTS\Gene Dunlap - It's Just The Way I Feel '81 Party In Me '81 (2014) {EXP2CD41}\07 - Should I Take Her Back, Should I Let Her Go.wav
Pre-gap length 0:00:02.33
Peak level 100.0 %
Extraction speed 3.5 X
Track quality 100.0 %
Test CRC EC88743B
Copy CRC EC88743B
Accurately ripped (confidence 4) [DB4C4143] (AR v2)
Copy OK
Track 8
Filename F:\POSTS\Gene Dunlap - It's Just The Way I Feel '81 Party In Me '81 (2014) {EXP2CD41}\08 - Surest Things Can Change.wav
Pre-gap length 0:00:02.24
Peak level 99.9 %
Extraction speed 3.5 X
Track quality 100.0 %
Test CRC B9C5B2DF
Copy CRC B9C5B2DF
Accurately ripped (confidence 4) [B653D19E] (AR v2)
Copy OK
Track 9
Filename F:\POSTS\Gene Dunlap - It's Just The Way I Feel '81 Party In Me '81 (2014) {EXP2CD41}\09 - Party In Me.wav
Pre-gap length 0:00:00.55
Peak level 100.0 %
Extraction speed 3.1 X
Track quality 99.9 %
Test CRC CF1AB977
Copy CRC CF1AB977
Accurately ripped (confidence 4) [63E60B88] (AR v2)
Copy OK
Track 10
Filename F:\POSTS\Gene Dunlap - It's Just The Way I Feel '81 Party In Me '81 (2014) {EXP2CD41}\10 - Jam City.wav
Peak level 100.0 %
Extraction speed 3.4 X
Track quality 100.0 %
Test CRC C0FE9CD4
Copy CRC C0FE9CD4
Accurately ripped (confidence 4) [7108406C] (AR v2)
Copy OK
Track 11
Filename F:\POSTS\Gene Dunlap - It's Just The Way I Feel '81 Party In Me '81 (2014) {EXP2CD41}\11 - Something Special.wav
Pre-gap length 0:00:00.62
Peak level 99.6 %
Extraction speed 4.0 X
Track quality 100.0 %
Test CRC 4F2DAE73
Copy CRC 4F2DAE73
Accurately ripped (confidence 4) [8E1AB94D] (AR v2)
Copy OK
Track 12
Filename F:\POSTS\Gene Dunlap - It's Just The Way I Feel '81 Party In Me '81 (2014) {EXP2CD41}\12 - This One's On Me.wav
Peak level 100.0 %
Extraction speed 3.8 X
Track quality 99.9 %
Test CRC D526B1C3
Copy CRC D526B1C3
Accurately ripped (confidence 4) [AB1F9550] (AR v2)
Copy OK
Track 13
Filename F:\POSTS\Gene Dunlap - It's Just The Way I Feel '81 Party In Me '81 (2014) {EXP2CD41}\13 - Take My Love.wav
Pre-gap length 0:00:00.16
Peak level 99.8 %
Extraction speed 4.3 X
Track quality 100.0 %
Test CRC 2D6DF83B
Copy CRC 2D6DF83B
Accurately ripped (confidence 4) [1BC6DF29] (AR v2)
Copy OK
Track 14
Filename F:\POSTS\Gene Dunlap - It's Just The Way I Feel '81 Party In Me '81 (2014) {EXP2CD41}\14 - Our Moments Together.wav
Pre-gap length 0:00:00.08
Peak level 99.5 %
Extraction speed 4.0 X
Track quality 100.0 %
Test CRC B85391D0
Copy CRC B85391D0
Accurately ripped (confidence 4) [44113FE8] (AR v2)
Copy OK
Track 15
Filename F:\POSTS\Gene Dunlap - It's Just The Way I Feel '81 Party In Me '81 (2014) {EXP2CD41}\15 - Something Inside My Head.wav
Pre-gap length 0:00:00.14
Peak level 99.8 %
Extraction speed 4.1 X
Track quality 100.0 %
Test CRC 35D545DC
Copy CRC 35D545DC
Accurately ripped (confidence 4) [F8785E49] (AR v2)
Copy OK
Track 16
Filename F:\POSTS\Gene Dunlap - It's Just The Way I Feel '81 Party In Me '81 (2014) {EXP2CD41}\16 - Corner Pocket.wav
Pre-gap length 0:00:00.13
Peak level 100.0 %
Extraction speed 3.4 X
Track quality 100.0 %
Test CRC EA6B0BE3
Copy CRC EA6B0BE3
Accurately ripped (confidence 4) [E4649915] (AR v2)
Copy OK
Track 17
Filename F:\POSTS\Gene Dunlap - It's Just The Way I Feel '81 Party In Me '81 (2014) {EXP2CD41}\17 - There Will Never Be Another (Like You).wav
Peak level 99.8 %
Extraction speed 4.2 X
Track quality 100.0 %
Test CRC 096B62CC
Copy CRC 096B62CC
Accurately ripped (confidence 3) [BC02BD3C] (AR v2)
Copy OK
All tracks accurately ripped
No errors occurred
End of status report
==== Log checksum D233FFA5C0490F5B9464C40C3565CA490345958CDDDC88BD228CDE6F5EE79A17 ====
 
Содержание индексной карты (.CUE)
REM GENRE Soul
REM DATE 2014
REM DISCID E710D411
REM COMMENT "ExactAudioCopy v1.0b3"
PERFORMER "Gene Dunlap"
TITLE "It's Just The Way I Feel : Party In Me"
FILE "01 - The Intro.wav" WAVE
TRACK 01 AUDIO
TITLE "The Intro"
PERFORMER "Gene Dunlap"
INDEX 01 00:00:00
FILE "02 - Rock Radio.wav" WAVE
TRACK 02 AUDIO
TITLE "Rock Radio"
PERFORMER "Gene Dunlap"
INDEX 01 00:00:00
TRACK 03 AUDIO
TITLE "Before You Break My Heart"
PERFORMER "Gene Dunlap"
INDEX 00 03:52:04
FILE "03 - Before You Break My Heart.wav" WAVE
INDEX 01 00:00:00
TRACK 04 AUDIO
TITLE "I Got You"
PERFORMER "Gene Dunlap"
INDEX 00 06:06:62
FILE "04 - I Got You.wav" WAVE
INDEX 01 00:00:00
TRACK 05 AUDIO
TITLE "Love Dancin'"
PERFORMER "Gene Dunlap"
INDEX 00 06:05:17
FILE "05 - Love Dancin'.wav" WAVE
INDEX 01 00:00:00
TRACK 06 AUDIO
TITLE "It's Just The Way I Feel"
PERFORMER "Gene Dunlap"
INDEX 00 04:35:51
FILE "06 - It's Just The Way I Feel.wav" WAVE
INDEX 01 00:00:00
TRACK 07 AUDIO
TITLE "Should I Take Her Back, Should I Let Her Go"
PERFORMER "Gene Dunlap"
INDEX 00 04:52:38
FILE "07 - Should I Take Her Back, Should I Let Her Go.wav" WAVE
INDEX 01 00:00:00
TRACK 08 AUDIO
TITLE "Surest Things Can Change"
PERFORMER "Gene Dunlap"
INDEX 00 03:35:40
FILE "08 - Surest Things Can Change.wav" WAVE
INDEX 01 00:00:00
TRACK 09 AUDIO
TITLE "Party In Me"
PERFORMER "Gene Dunlap"
INDEX 00 05:40:23
FILE "09 - Party In Me.wav" WAVE
INDEX 01 00:00:00
FILE "10 - Jam City.wav" WAVE
TRACK 10 AUDIO
TITLE "Jam City"
PERFORMER "Gene Dunlap"
INDEX 01 00:00:00
TRACK 11 AUDIO
TITLE "Something Special"
PERFORMER "Gene Dunlap"
INDEX 00 04:09:70
FILE "11 - Something Special.wav" WAVE
INDEX 01 00:00:00
FILE "12 - This One's On Me.wav" WAVE
TRACK 12 AUDIO
TITLE "This One's On Me"
PERFORMER "Gene Dunlap"
INDEX 01 00:00:00
TRACK 13 AUDIO
TITLE "Take My Love"
PERFORMER "Gene Dunlap"
INDEX 00 04:34:01
FILE "13 - Take My Love.wav" WAVE
INDEX 01 00:00:00
TRACK 14 AUDIO
TITLE "Our Moments Together"
PERFORMER "Gene Dunlap"
INDEX 00 05:08:42
FILE "14 - Our Moments Together.wav" WAVE
INDEX 01 00:00:00
TRACK 15 AUDIO
TITLE "Something Inside My Head"
PERFORMER "Gene Dunlap"
INDEX 00 02:55:14
FILE "15 - Something Inside My Head.wav" WAVE
INDEX 01 00:00:00
TRACK 16 AUDIO
TITLE "Corner Pocket"
PERFORMER "Gene Dunlap"
INDEX 00 04:29:67
FILE "16 - Corner Pocket.wav" WAVE
INDEX 01 00:00:00
FILE "17 - There Will Never Be Another (Like You).wav" WAVE
TRACK 17 AUDIO
TITLE "There Will Never Be Another (Like You)"
PERFORMER "Gene Dunlap"
INDEX 01 00:00:00
Приватный:
Нет (DHT включён)
Размер:
553.60 Мб (580,488,564 байт) » файлов: 30
Участники:
0 раздают, 0 качают (0 участников всего)
Внешние участники:
3 раздают, 1 качают (4 участников всего) [ Обновить ]
Есть вопросы - пишите личное сообщение пользователю M0p94ok.
07:26
78
Нет комментариев. Ваш будет первым!