Поиск

(Smooth Jazz, Soul, R&B) [CD] T.W.O. - The Whispers Orchestra - 2009, FLAC (image+.cue), lossless

(Smooth Jazz, Soul, R&B) [CD] T.W.O. - The Whispers Orchestra - 2009, FLAC (image+.cue), lossless
Треклист:
T.W.O. / The Whispers Orchestra
Жанр: Smooth Jazz, Soul, R&B
Носитель: CD
Страна-производитель диска (релиза): USA
Год издания: 2009
Издатель (лейбл): The Whispers Orchestra
Номер по каталогу: MTK3139
Страна исполнителя (группы): USA
Аудиокодек: FLAC (*.flac)
Тип рипа: image+.cue
Битрейт аудио: lossless
Продолжительность: 01:10:45
Источник (релизер): свой
Наличие сканов в содержимом раздачи: да
Треклист:
1. The Beat Goes On (4:16)
2. Maybe This Time (6:16)
3. Rockin' Steady Again (4:12)
4. Can I? (5:24)
5. Family Intro (0:25)
6. Family (5:08)
7. Jafunk (5:40)
8. She's Beautiful (5:52)
9. Inside Lovers, Outside Friends (3:20)
10. Cabo (5:36)
11. Movin' On Intro (0:10)
12. Movin' On (3:55)
13. Ariana (5:59)
14. Ready Or Not (3:59)
15. Miss Aphrodisiac (4:46)
16. Shinjuku Station (5:47)
 
Лог создания рипа
Exact Audio Copy V1.0 beta 3 from 29. August 2011
EAC extraction logfile from 8. July 2015, 13:31
The Whispers Orchestra / T.W.O
Used drive : hp DVD-RAM GH40L Adapter: 0 ID: 1
Read mode : Secure
Utilize accurate stream : Yes
Defeat audio cache : Yes
Make use of C2 pointers : No
Read offset correction : 667
Overread into Lead-In and Lead-Out : No
Fill up missing offset samples with silence : Yes
Delete leading and trailing silent blocks : No
Null samples used in CRC calculations : Yes
Used interface : Native Win32 interface for Win NT & 2000
Used output format : User Defined Encoder
Selected bitrate : 896 kBit/s
Quality : High
Add ID3 tag : No
Command line compressor : C:\Program Files (x86)\Exact Audio Copy\Flac\flac.exe
Additional command line options : -V -8 -T "Date=%year%" -T "Genre=%genre%" %source%
TOC of the extracted CD
Track | Start | Length | Start sector | End sector
---------------------------------------------------------
1 | 0:00.00 | 4:18.02 | 0 | 19351
2 | 4:18.02 | 6:17.65 | 19352 | 47691
3 | 10:35.67 | 4:14.59 | 47692 | 66800
4 | 14:50.51 | 5:24.48 | 66801 | 91148
5 | 20:15.24 | 0:25.32 | 91149 | 93055
6 | 20:40.56 | 5:10.59 | 93056 | 116364
7 | 25:51.40 | 5:42.45 | 116365 | 142059
8 | 31:34.10 | 5:54.18 | 142060 | 168627
9 | 37:28.28 | 3:22.13 | 168628 | 183790
10 | 40:50.41 | 5:38.53 | 183791 | 209193
11 | 46:29.19 | 0:10.61 | 209194 | 210004
12 | 46:40.05 | 3:57.63 | 210005 | 227842
13 | 50:37.68 | 6:01.21 | 227843 | 254938
14 | 56:39.14 | 4:01.44 | 254939 | 273057
15 | 60:40.58 | 4:48.63 | 273058 | 294720
16 | 65:29.46 | 5:47.38 | 294721 | 320783
Range status and errors
Selected range
Filename C:\Users\Администратор\Music\T.W.O\The Whispers Orchestra - 2010\The Whispers Orchestra - T.W.O.wav
Peak level 96.8 %
Extraction speed 3.3 X
Range quality 100.0 %
Test CRC 20E1D14F
Copy CRC 20E1D14F
Copy OK
No errors occurred
AccurateRip summary
Track 1 not present in database
Track 2 not present in database
Track 3 not present in database
Track 4 not present in database
Track 5 not present in database
Track 6 not present in database
Track 7 not present in database
Track 8 not present in database
Track 9 not present in database
Track 10 not present in database
Track 11 not present in database
Track 12 not present in database
Track 13 not present in database
Track 14 not present in database
Track 15 not present in database
Track 16 not present in database
None of the tracks are present in the AccurateRip database
End of status report
---- CUETools DB Plugin V2.1.4
[CTDB TOCID: wLcQsjFaxGcdrvuX0Yas8Y1vPLc-] disk not present in database
Submit result: wLcQsjFaxGcdrvuX0Yas8Y1vPLc- has been uploaded
==== Log checksum A30293D97D68AFA998FB8AADE377D827B3997F01F48C106D827EA1593B26622D ====
 
О группе
"TWO" good to be called a band. The sound created by this talented group of musicians is closer to that of an orchestra. The core of this group has been together for over 20 years providing the music for The Mighty Whispers! In addition to backing up the Whispers, this orchestra has backed up the late great Gerald Levert, Chaka Khan, Howard Hewett, Keith Washington, Cherelle, Alexander O’Neil, After Seven, Phil Perry, and a host of other recording artists.
Homepage: http://www.thewhispersorchestra.com
 
Состав
GRADY WILKINS: Vocals, Keyboards
EMILIO CONESA: Guitar
JOHN VALENTINO: Sax
JAMIE BREWER: Bass
DEWAYNE SWEET: Keyboards
PERCY SCOTT: Keyboards
REGGIE RUGLEY: Keys, Programmer
DANTE ROBERSON: Drums
Приватный:
Нет (DHT включён)
Размер:
490.31 Мб (514,122,850 байт) » файлов: 7
Участники:
0 раздают, 0 качают (0 участников всего)
Внешние участники:
2 раздают, 1 качают (3 участников всего) [ Обновить ]
Есть вопросы - пишите личное сообщение пользователю M0p94ok.
07:27
57
Нет комментариев. Ваш будет первым!