Поиск

(Funk, Soul, Spoken Words) [CD] Gil Scott-Heron - Live At The Town & Country 1988 (2 CD) - 2008, FLAC (tracks+.cue), lossless

(Funk, Soul, Spoken Words) [CD] Gil Scott-Heron - Live At The Town & Country 1988 (2 CD) - 2008, FLAC (tracks+.cue), lossless
Треклист:
Gil Scott-Heron - Live At The Town & Country 1988 (2 CD) Жанр: Funk, Soul, Spoken Words
Носитель: CD
Год издания: 2008
Издатель (лейбл): Acadia/Evangeline Records/One Media
Номер по каталогу: ACAD 8198
Аудиокодек: FLAC (*.flac)
Тип рипа: tracks+.cue
Битрейт аудио: lossless
Продолжительность: 63:35 / 48:44
Rip by ruskaval
Наличие сканов в содержимом раздачи: да
CD 1

01. Black Man And Monster Movies (6:36)
02. Space Song (5:57)
03. We Almost Lost Detroit (4:17)
04. Home Is Where The Hatred Is (11:21)
05. Save The Children (9:18)
06. The Vibemasphere (12:43)
07. Angel Dust (13:22)
CD 2

01. The Blackground (13:48)
02. Winter In America (9:06)
03. The Spirit (18:51)
04. Johannesburg (6:59)
 
 
CD 1
 
Лог создания рипа
Exact Audio Copy V1.1 from 23. June 2015
EAC extraction logfile from 5. August 2015, 17:16
Gil Scott-Heron / Live At The Town & Country 1988 (CD1)
Used drive : TSSTcorpCDDVDW SE-208DB Adapter: 7 ID: 0
Read mode : Secure
Utilize accurate stream : Yes
Defeat audio cache : Yes
Make use of C2 pointers : No
Read offset correction : 6
Overread into Lead-In and Lead-Out : No
Fill up missing offset samples with silence : Yes
Delete leading and trailing silent blocks : No
Null samples used in CRC calculations : Yes
Used interface : Installed external ASPI interface
Gap handling : Appended to previous track
Used output format : User Defined Encoder
Selected bitrate : 1024 kBit/s
Quality : High
Add ID3 tag : No
Command line compressor : C:\Program Files (x86)\FLAC Frontend\tools\flac.exe
Additional command line options : -8 -V -T "ARTIST=%artist%" -T "TITLE=%title%" -T "ALBUM=%albumtitle%" -T "DATE=%year%" -T "TRACKNUMBER=%tracknr%" -T "TOTALTRACKS=%numtracks%" -T "GENRE=%genre%" -T "ALBUMARTIST=%albumartist%" -T "ALBUM ARTIST=%albumartist%" -T "COMMENT=EAC Secure Mode, Test & Copy, AccurateRip, FLAC -8" %source%
TOC of the extracted CD
Track | Start | Length | Start sector | End sector
---------------------------------------------------------
1 | 0:00.00 | 6:36.26 | 0 | 29725
2 | 6:36.26 | 5:56.57 | 29726 | 56482
3 | 12:33.08 | 4:17.13 | 56483 | 75770
4 | 16:50.21 | 11:21.30 | 75771 | 126875
5 | 28:11.51 | 9:17.51 | 126876 | 168701
6 | 37:29.27 | 12:43.28 | 168702 | 225954
7 | 50:12.55 | 13:22.26 | 225955 | 286130
Track 1
Filename M:\_EAC\Gil Scott-Heron - Live At The Town & Country 1988 (2008) [FLAC] {2CD Acadia Edition}\CD1\01 - Black Man And Monster Movies.wav
Pre-gap length 0:00:02.00
Peak level 46.9 %
Extraction speed 1.1 X
Track quality 100.0 %
Test CRC 7B37E1AF
Copy CRC 7B37E1AF
Accurately ripped (confidence 2) [58589E53] (AR v2)
Copy OK
Track 2
Filename M:\_EAC\Gil Scott-Heron - Live At The Town & Country 1988 (2008) [FLAC] {2CD Acadia Edition}\CD1\02 - Space Song.wav
Peak level 34.1 %
Extraction speed 1.2 X
Track quality 100.0 %
Test CRC 4FB179EC
Copy CRC 4FB179EC
Accurately ripped (confidence 2) [1EA169E4] (AR v2)
Copy OK
Track 3
Filename M:\_EAC\Gil Scott-Heron - Live At The Town & Country 1988 (2008) [FLAC] {2CD Acadia Edition}\CD1\03 - We Almost Lost Detroit.wav
Peak level 48.0 %
Extraction speed 1.3 X
Track quality 100.0 %
Test CRC D17A82EF
Copy CRC D17A82EF
Accurately ripped (confidence 2) [AA784961] (AR v2)
Copy OK
Track 4
Filename M:\_EAC\Gil Scott-Heron - Live At The Town & Country 1988 (2008) [FLAC] {2CD Acadia Edition}\CD1\04 - Home Is Where The Hatred Is.wav
Peak level 99.9 %
Extraction speed 1.5 X
Track quality 100.0 %
Test CRC 50775D81
Copy CRC 50775D81
Accurately ripped (confidence 1) [2C9008BD] (AR v1)
Copy OK
Track 5
Filename M:\_EAC\Gil Scott-Heron - Live At The Town & Country 1988 (2008) [FLAC] {2CD Acadia Edition}\CD1\05 - Save The Children.wav
Peak level 70.9 %
Extraction speed 1.7 X
Track quality 100.0 %
Test CRC 8E200FD0
Copy CRC 8E200FD0
Accurately ripped (confidence 2) [18E71015] (AR v2)
Copy OK
Track 6
Filename M:\_EAC\Gil Scott-Heron - Live At The Town & Country 1988 (2008) [FLAC] {2CD Acadia Edition}\CD1\06 - The Vibemasphere.wav
Peak level 62.3 %
Extraction speed 1.9 X
Track quality 100.0 %
Test CRC 69084E1E
Copy CRC 69084E1E
Accurately ripped (confidence 2) [C80768FD] (AR v2)
Copy OK
Track 7
Filename M:\_EAC\Gil Scott-Heron - Live At The Town & Country 1988 (2008) [FLAC] {2CD Acadia Edition}\CD1\07 - Angel Dust.wav
Peak level 59.7 %
Extraction speed 2.0 X
Track quality 100.0 %
Test CRC 63B4D41B
Copy CRC 63B4D41B
Accurately ripped (confidence 2) [20BE11D3] (AR v2)
Copy OK
All tracks accurately ripped
No errors occurred
End of status report
==== Log checksum CBF0F921568D1B6F76AA53000C23FA511166D9115E84BAE6410B4476B8F98272 ====
 
Содержание индексной карты (.CUE)
REM GENRE Soul
REM DATE 2008
REM DISCID 500EE707
REM COMMENT "ExactAudioCopy v1.1"
PERFORMER "Gil Scott-Heron"
TITLE "Live At The Town & Country 1988 (CD1)"
FILE "01 - Black Man And Monster Movies.wav" WAVE
TRACK 01 AUDIO
TITLE "Black Man And Monster Movies"
PERFORMER "Gil Scott-Heron"
INDEX 01 00:00:00
FILE "02 - Space Song.wav" WAVE
TRACK 02 AUDIO
TITLE "Space Song"
PERFORMER "Gil Scott-Heron"
FLAGS DCP
INDEX 01 00:00:00
FILE "03 - We Almost Lost Detroit.wav" WAVE
TRACK 03 AUDIO
TITLE "We Almost Lost Detroit"
PERFORMER "Gil Scott-Heron"
FLAGS DCP
INDEX 01 00:00:00
FILE "04 - Home Is Where The Hatred Is.wav" WAVE
TRACK 04 AUDIO
TITLE "Home Is Where The Hatred Is"
PERFORMER "Gil Scott-Heron"
FLAGS DCP
INDEX 01 00:00:00
FILE "05 - Save The Children.wav" WAVE
TRACK 05 AUDIO
TITLE "Save The Children"
PERFORMER "Gil Scott-Heron"
FLAGS DCP
INDEX 01 00:00:00
FILE "06 - The Vibemasphere.wav" WAVE
TRACK 06 AUDIO
TITLE "The Vibemasphere"
PERFORMER "Gil Scott-Heron"
FLAGS DCP
INDEX 01 00:00:00
FILE "07 - Angel Dust.wav" WAVE
TRACK 07 AUDIO
TITLE "Angel Dust"
PERFORMER "Gil Scott-Heron"
FLAGS DCP
INDEX 01 00:00:00
 
CD 2
 
Лог создания рипа
Exact Audio Copy V1.1 from 23. June 2015
EAC extraction logfile from 5. August 2015, 18:46
Gil Scott-Heron / Live At The Town & Country 1988 (CD2)
Used drive : TSSTcorpCDDVDW SE-208DB Adapter: 7 ID: 0
Read mode : Secure
Utilize accurate stream : Yes
Defeat audio cache : Yes
Make use of C2 pointers : No
Read offset correction : 6
Overread into Lead-In and Lead-Out : No
Fill up missing offset samples with silence : Yes
Delete leading and trailing silent blocks : No
Null samples used in CRC calculations : Yes
Used interface : Installed external ASPI interface
Gap handling : Appended to previous track
Used output format : User Defined Encoder
Selected bitrate : 1024 kBit/s
Quality : High
Add ID3 tag : No
Command line compressor : C:\Program Files (x86)\FLAC Frontend\tools\flac.exe
Additional command line options : -8 -V -T "ARTIST=%artist%" -T "TITLE=%title%" -T "ALBUM=%albumtitle%" -T "DATE=%year%" -T "TRACKNUMBER=%tracknr%" -T "TOTALTRACKS=%numtracks%" -T "GENRE=%genre%" -T "ALBUMARTIST=%albumartist%" -T "ALBUM ARTIST=%albumartist%" -T "COMMENT=EAC Secure Mode, Test & Copy, AccurateRip, FLAC -8" %source%
TOC of the extracted CD
Track | Start | Length | Start sector | End sector
---------------------------------------------------------
1 | 0:00.00 | 13:47.70 | 0 | 62094
2 | 13:47.70 | 9:05.58 | 62095 | 103027
3 | 22:53.53 | 18:51.14 | 103028 | 187866
4 | 41:44.67 | 6:58.53 | 187867 | 219269
Track 1
Filename M:\_EAC\Gil Scott-Heron - Live At The Town & Country 1988 (2008) [FLAC] {2CD Acadia Edition}\CD2\01 - The Blackground.wav
Pre-gap length 0:00:02.00
Peak level 100.0 %
Extraction speed 1.3 X
Track quality 99.9 %
Test CRC DE2F7B9F
Copy CRC DE2F7B9F
Accurately ripped (confidence 2) [3E944F20] (AR v2)
Copy OK
Track 2
Filename M:\_EAC\Gil Scott-Heron - Live At The Town & Country 1988 (2008) [FLAC] {2CD Acadia Edition}\CD2\02 - Winter In America.wav
Peak level 100.0 %
Extraction speed 1.7 X
Track quality 99.9 %
Test CRC 8978986D
Copy CRC 8978986D
Accurately ripped (confidence 2) [3E6229CB] (AR v2)
Copy OK
Track 3
Filename M:\_EAC\Gil Scott-Heron - Live At The Town & Country 1988 (2008) [FLAC] {2CD Acadia Edition}\CD2\03 - The Spirit.wav
Peak level 100.0 %
Extraction speed 2.2 X
Track quality 100.0 %
Test CRC 1AB32D56
Copy CRC 1AB32D56
Accurately ripped (confidence 2) [3A4371BF] (AR v2)
Copy OK
Track 4
Filename M:\_EAC\Gil Scott-Heron - Live At The Town & Country 1988 (2008) [FLAC] {2CD Acadia Edition}\CD2\04 - Johannesburg.wav
Peak level 100.0 %
Extraction speed 2.3 X
Track quality 100.0 %
Test CRC F22BBCD6
Copy CRC F22BBCD6
Accurately ripped (confidence 2) [2B645B3C] (AR v2)
Copy OK
All tracks accurately ripped
No errors occurred
End of status report
==== Log checksum 2CBEF93B07DA274A544F3908E31417423C7B1A9B5003249904FA5E8A34AD6019 ====
 
Содержание индексной карты (.CUE)
REM GENRE Soul
REM DATE 2008
REM DISCID 320B6B04
REM COMMENT "ExactAudioCopy v1.1"
PERFORMER "Gil Scott-Heron"
TITLE "Live At The Town & Country 1988 (CD2)"
FILE "01 - The Blackground.wav" WAVE
TRACK 01 AUDIO
TITLE "The Blackground"
PERFORMER "Gil Scott-Heron"
INDEX 01 00:00:00
FILE "02 - Winter In America.wav" WAVE
TRACK 02 AUDIO
TITLE "Winter In America"
PERFORMER "Gil Scott-Heron"
FLAGS DCP
INDEX 01 00:00:00
FILE "03 - The Spirit.wav" WAVE
TRACK 03 AUDIO
TITLE "The Spirit"
PERFORMER "Gil Scott-Heron"
FLAGS DCP
INDEX 01 00:00:00
FILE "04 - Johannesburg.wav" WAVE
TRACK 04 AUDIO
TITLE "Johannesburg"
PERFORMER "Gil Scott-Heron"
FLAGS DCP
INDEX 01 00:00:00
Приватный:
Нет (DHT включён)
Размер:
701.56 Мб (735,638,637 байт) » файлов: 27
Участники:
0 раздают, 0 качают (0 участников всего)
Внешние участники:
3 раздают, 1 качают (4 участников всего) [ Обновить ]
Есть вопросы - пишите личное сообщение пользователю M0p94ok.
07:27
77
Нет комментариев. Ваш будет первым!