Поиск

(Soul Jazz, Latin Jazz) [CD] Billy Wooten (w/ The Music Royale Latin Jazz Ensemble) - Live at the Madame Theatre - 1994 (2013 Japan Edition), FLAC (tracks+.cue), lossless

(Soul Jazz, Latin Jazz) [CD] Billy Wooten (w/ The Music Royale Latin Jazz Ensemble) - Live at the Madame Theatre - 1994 (2013 Japan Edition), FLAC (tracks+.cue), lossless
Треклист:
Billy Wooten - Live at the Madame Theatre
Жанр: Soul Jazz, Latin Jazz
Носитель: CD
Страна-производитель диска (релиза): Япония
Год издания: 1994 (2013)
Издатель (лейбл): P-Vine Records
Номер по каталогу: PCD-93741
Страна исполнителя (группы): США
Аудиокодек: FLAC (*.flac)
Тип рипа: tracks+.cue
Битрейт аудио: lossless
Продолжительность: 53:16
Источник (релизер): stoichie (what)
Наличие сканов в содержимом раздачи: нет
Треклист:
01. Night in Tunisia (9:19)
02. Giving (3:44)
03. Alaba Luce (9:33)
04. Lay Bare the Heart (5:13)
05. Dejame Sonar (7:42)
06. Transformation (3:01)
07. Dancing & Singing (5:32)
08. Co Co Se Co (9:12)
 
Лог создания рипа
Exact Audio Copy V1.0 beta 6 from 9. April 2015
EAC extraction logfile from 11. July 2015, 15:18
Billy Wooten / Live At The Madame Theatre
Used drive : MATSHITADVD+-RW UJ8FB Adapter: 1 ID: 0
Read mode : Secure
Utilize accurate stream : Yes
Defeat audio cache : Yes
Make use of C2 pointers : No
Read offset correction : 6
Overread into Lead-In and Lead-Out : No
Fill up missing offset samples with silence : Yes
Delete leading and trailing silent blocks : No
Null samples used in CRC calculations : Yes
Used interface : Native Win32 interface for Win NT & 2000
Gap handling : Appended to previous track
Used output format : User Defined Encoder
Selected bitrate : 1024 kBit/s
Quality : High
Add ID3 tag : No
Command line compressor : C:\Program Files\Flac\flac.exe
Additional command line options : -8 -V -T "ARTIST=%artist%" -T "TITLE=%title%" -T "ALBUM=%albumtitle%" -T "DATE=%year%" -T "TRACKNUMBER=%tracknr%" -T "GENRE=%genre%" -T "PERFORMER=%albuminterpret%" -T "COMPOSER=%composer%" %haslyrics%--tag-from-file=LYRICS="%lyricsfile%"%haslyrics% -T "ALBUMARTIST=%albumartist%" -T "DISCNUMBER=%cdnumber%" -T "TOTALDISCS=%totalcds%" -T "TOTALTRACKS=%numtracks%" -T "COMMENT=%comment%" %source% -o %dest%
TOC of the extracted CD
Track | Start | Length | Start sector | End sector
---------------------------------------------------------
1 | 0:00.00 | 9:19.33 | 0 | 41957
2 | 9:19.33 | 3:43.67 | 41958 | 58749
3 | 13:03.25 | 9:33.10 | 58750 | 101734
4 | 22:36.35 | 5:13.03 | 101735 | 125212
5 | 27:49.38 | 7:41.47 | 125213 | 159834
6 | 35:31.10 | 3:00.50 | 159835 | 173384
7 | 38:31.60 | 5:32.04 | 173385 | 198288
8 | 44:03.64 | 9:12.31 | 198289 | 239719
Track 1
Filename C:\EAC Rips\Billy Wooten - Live At The Madame Theatre (1994)\01 - Night In Tunisia.wav
Pre-gap length 0:00:02.00
Peak level 100.0 %
Extraction speed 3.0 X
Track quality 100.0 %
Test CRC 1670BBBC
Copy CRC 1670BBBC
Track not present in AccurateRip database
Copy OK
Track 2
Filename C:\EAC Rips\Billy Wooten - Live At The Madame Theatre (1994)\02 - Giving.wav
Pre-gap length 0:00:01.50
Peak level 100.0 %
Extraction speed 3.2 X
Track quality 100.0 %
Test CRC 7664B351
Copy CRC 7664B351
Track not present in AccurateRip database
Copy OK
Track 3
Filename C:\EAC Rips\Billy Wooten - Live At The Madame Theatre (1994)\03 - Alaba Luce.wav
Pre-gap length 0:00:01.40
Peak level 100.0 %
Extraction speed 3.9 X
Track quality 100.0 %
Test CRC B3F5B3D8
Copy CRC B3F5B3D8
Track not present in AccurateRip database
Copy OK
Track 4
Filename C:\EAC Rips\Billy Wooten - Live At The Madame Theatre (1994)\04 - Lay Bare The Heart.wav
Pre-gap length 0:00:01.20
Peak level 67.1 %
Extraction speed 3.6 X
Track quality 99.9 %
Test CRC 03540E9A
Copy CRC 03540E9A
Track not present in AccurateRip database
Copy OK
Track 5
Filename C:\EAC Rips\Billy Wooten - Live At The Madame Theatre (1994)\05 - Dejame Sonar.wav
Pre-gap length 0:00:01.77
Peak level 100.0 %
Extraction speed 4.6 X
Track quality 100.0 %
Test CRC 2B27732F
Copy CRC 2B27732F
Track not present in AccurateRip database
Copy OK
Track 6
Filename C:\EAC Rips\Billy Wooten - Live At The Madame Theatre (1994)\06 - Transformation.wav
Pre-gap length 0:00:01.49
Peak level 68.9 %
Extraction speed 4.3 X
Track quality 100.0 %
Test CRC F498173E
Copy CRC F498173E
Track not present in AccurateRip database
Copy OK
Track 7
Filename C:\EAC Rips\Billy Wooten - Live At The Madame Theatre (1994)\07 - Dancing & Singing.wav
Peak level 100.0 %
Extraction speed 4.9 X
Track quality 100.0 %
Test CRC F802924C
Copy CRC F802924C
Track not present in AccurateRip database
Copy OK
Track 8
Filename C:\EAC Rips\Billy Wooten - Live At The Madame Theatre (1994)\08 - Co Co Se Co.wav
Peak level 100.0 %
Extraction speed 4.9 X
Track quality 99.9 %
Test CRC 2125586D
Copy CRC 2125586D
Track not present in AccurateRip database
Copy OK
None of the tracks are present in the AccurateRip database
No errors occurred
End of status report
---- CUETools DB Plugin V2.1.6
[CTDB TOCID: 1bRfx4p4IV2sGRE9c7PA1LSav4o-] disk not present in database
Submit result: 1bRfx4p4IV2sGRE9c7PA1LSav4o- has been uploaded
==== Log checksum 01EEE8A8AAD772921A1F131D8D3DCDC4BC891F515FB4B3515CA630C494AC33B3 ====
 
Содержание индексной карты (.CUE)
REM GENRE Jazz
REM DATE 1994
REM DISCID 650C7C08
REM COMMENT "ExactAudioCopy v1.0b6"
CATALOG 4995879937419
PERFORMER "Billy Wooten"
TITLE "Live at the Madame Theatre"
FILE "01 - Night in Tunisia.wav" WAVE
TRACK 01 AUDIO
TITLE "Night in Tunisia"
PERFORMER "Billy Wooten"
INDEX 01 00:00:00
TRACK 02 AUDIO
TITLE "Giving"
PERFORMER "Billy Wooten"
INDEX 00 09:17:70
FILE "02 - Giving.wav" WAVE
INDEX 01 00:00:00
TRACK 03 AUDIO
TITLE "Alaba Luce"
PERFORMER "Billy Wooten"
INDEX 00 03:42:37
FILE "03 - Alaba Luce.wav" WAVE
INDEX 01 00:00:00
TRACK 04 AUDIO
TITLE "Lay Bare the Heart"
PERFORMER "Billy Wooten"
INDEX 00 09:31:70
FILE "04 - Lay Bare the Heart.wav" WAVE
INDEX 01 00:00:00
TRACK 05 AUDIO
TITLE "Dejame Sonar"
PERFORMER "Billy Wooten"
INDEX 00 05:11:20
FILE "05 - Dejame Sonar.wav" WAVE
INDEX 01 00:00:00
TRACK 06 AUDIO
TITLE "Transformation"
PERFORMER "Billy Wooten"
INDEX 00 07:40:10
FILE "06 - Transformation.wav" WAVE
INDEX 01 00:00:00
FILE "07 - Dancing & Singing.wav" WAVE
TRACK 07 AUDIO
TITLE "Dancing & Singing"
PERFORMER "Billy Wooten"
INDEX 01 00:00:00
FILE "08 - Co Co Se Co.wav" WAVE
TRACK 08 AUDIO
TITLE "Co Co Se Co"
PERFORMER "Billy Wooten"
INDEX 01 00:00:00
 
Отчет CUETools
[CUETools log; Date: 13.07.2015 14:00:03; Version: 2.1.5]
[CTDB TOCID: 1bRfx4p4IV2sGRE9c7PA1LSav4o-] found.
Track | CTDB Status
1 | (1/1) Accurately ripped
2 | (1/1) Accurately ripped
3 | (1/1) Accurately ripped
4 | (1/1) Accurately ripped
5 | (1/1) Accurately ripped
6 | (1/1) Accurately ripped
7 | (1/1) Accurately ripped
8 | (1/1) Accurately ripped
[AccurateRip ID: 0010c485-006e02c5-650c7c08] disk not present in database.
Track Peak [ CRC32 ] [W/O NULL] [ LOG ]
-- 100,0 [1D46F02F] [3C3F1154]
01 100,0 [1670BBBC] [304AD33B] CRC32
02 100,0 [7664B351] [8E55D5D0] CRC32
03 100,0 [B3F5B3D8] [995BF14A] CRC32
04 67,1 [03540E9A] [B3A43C1B] CRC32
05 100,0 [2B27732F] [BBBB0D4C] CRC32
06 68,9 [F498173E] [D9FD960E] CRC32
07 100,0 [F802924C] [3F53A087] CRC32
08 100,0 [2125586D] [DC165AAB] CRC32
 
Об альбоме (сборнике)
A smoking live set from vibesman Billy Wooten – recorded with a slightly Latin mode, thanks to backing from his hip Music Royale ensemble! Wooten's vibes are as sharp and soulful here as on any of his great 70s recordings – and the added fire of the Latin group really helps Billy find some great new grooves – almost Cal Tjader territory at times, but with a harder approach overall – as you might expect! The group's a big one – and although the set features a bit of vocals from female singers, the overall setting is instrumental – and very lively throughout. Titles include "Giving", "Alaba Luce", "Lay Bare The Heart", "Dejame Sonar", and "Transformation".
 
Состав
Jesus Florida - violin
George "Sparky" Smith - conductor, alto saxophone, flute
Mike McFarland, Ivan Benson - Latin percussion
Larry Clark - percussion
Jonathan - wood bass
Carl Hines - piano
Clifford Ratliff, Allen Miller, Mike Schofield - trumpet
James Pratt, Jim Hicks - trombone
David Young - tenor saxophone
Alonzo "Pookie" Johnson - alto saxophone
Robert "Bert" Parrish - baritone saxophone
Dave Laskey - guitar
Willie Ramos - bass
Billy Wooten - vibes
Maria Sciliano, Shana - vocals
Приватный:
Нет (DHT включён)
Размер:
282.90 Мб (296,638,399 байт) » файлов: 21
Участники:
0 раздают, 0 качают (0 участников всего)
Внешние участники:
5 раздают, 1 качают (6 участников всего) [ Обновить ]
Есть вопросы - пишите личное сообщение пользователю M0p94ok.
07:06
82
Нет комментариев. Ваш будет первым!