Поиск

(Soul-Jazz, Hard Bop) [CD] Billy Wooten & Richard "Groove" Holmes - The Place to Start - 1986 (2013 Japan Edition), FLAC (tracks+.cue), lossless

(Soul-Jazz, Hard Bop) [CD] Billy Wooten & Richard "Groove" Holmes - The Place to Start - 1986 (2013 Japan Edition), FLAC (tracks+.cue), lossless
Треклист:
Billy Wooten & Richard "Groove" Holmes - The Place to Start
Жанр: Soul-Jazz, Hard Bop
Носитель: CD
Страна-производитель диска (релиза): Япония
Год издания: 1986 (2013)
Издатель (лейбл): P-Vine Records
Номер по каталогу: PCD-93740
Страна исполнителя (группы): США
Аудиокодек: FLAC (*.flac)
Тип рипа: tracks+.cue
Битрейт аудио: lossless
Продолжительность: 65:11
Источник (релизер): stoichie (what)
Наличие сканов в содержимом раздачи: нет
Треклист:
01. I Remember April (11:17)
02. Bags (10:37)
03. My Funny Valentine (7:24)
04. Blue Bossa (14:14)
05. Flamingo (11:24)
06. Groove's Blues (7:40)
07. It's a Groove's Thing (2:35)
Состав:
Billy Wooten - vibes
Richard "Groove" Holmes - organ
Jimmy Coe - tenor saxophone
Jozelle Carter - drums
 
Лог создания рипа
Exact Audio Copy V1.0 beta 6 from 9. April 2015
EAC extraction logfile from 11. July 2015, 13:59
Billy Wooten And Richard Groove Holmes / The Place To Start
Used drive : MATSHITADVD+-RW UJ8FB Adapter: 1 ID: 0
Read mode : Secure
Utilize accurate stream : Yes
Defeat audio cache : Yes
Make use of C2 pointers : No
Read offset correction : 6
Overread into Lead-In and Lead-Out : No
Fill up missing offset samples with silence : Yes
Delete leading and trailing silent blocks : No
Null samples used in CRC calculations : Yes
Used interface : Native Win32 interface for Win NT & 2000
Gap handling : Appended to previous track
Used output format : User Defined Encoder
Selected bitrate : 1024 kBit/s
Quality : High
Add ID3 tag : No
Command line compressor : C:\Program Files\Flac\flac.exe
Additional command line options : -8 -V -T "ARTIST=%artist%" -T "TITLE=%title%" -T "ALBUM=%albumtitle%" -T "DATE=%year%" -T "TRACKNUMBER=%tracknr%" -T "GENRE=%genre%" -T "PERFORMER=%albuminterpret%" -T "COMPOSER=%composer%" %haslyrics%--tag-from-file=LYRICS="%lyricsfile%"%haslyrics% -T "ALBUMARTIST=%albumartist%" -T "DISCNUMBER=%cdnumber%" -T "TOTALDISCS=%totalcds%" -T "TOTALTRACKS=%numtracks%" -T "COMMENT=%comment%" %source% -o %dest%
TOC of the extracted CD
Track | Start | Length | Start sector | End sector
---------------------------------------------------------
1 | 0:00.00 | 11:17.20 | 0 | 50794
2 | 11:17.20 | 10:37.25 | 50795 | 98594
3 | 21:54.45 | 7:24.30 | 98595 | 131924
4 | 29:19.00 | 14:14.15 | 131925 | 195989
5 | 43:33.15 | 11:23.59 | 195990 | 247273
6 | 54:56.74 | 7:40.23 | 247274 | 281796
7 | 62:37.22 | 2:34.53 | 281797 | 293399
Track 1
Filename C:\EAC Rips\Billy Wooten And Richard Groove Holmes - The Place To Start (1986)\01 - I Remember April.wav
Pre-gap length 0:00:02.00
Peak level 100.0 %
Extraction speed 3.1 X
Track quality 99.9 %
Test CRC 07060001
Copy CRC 07060001
Accurately ripped (confidence 1) [8AD767BB] (AR v2)
Copy OK
Track 2
Filename C:\EAC Rips\Billy Wooten And Richard Groove Holmes - The Place To Start (1986)\02 - Bags.wav
Pre-gap length 0:00:00.89
Peak level 100.0 %
Extraction speed 4.0 X
Track quality 100.0 %
Test CRC DBE4DC11
Copy CRC DBE4DC11
Accurately ripped (confidence 1) [317B57B4] (AR v2)
Copy OK
Track 3
Filename C:\EAC Rips\Billy Wooten And Richard Groove Holmes - The Place To Start (1986)\03 - My Funny Valentine.wav
Pre-gap length 0:00:01.56
Peak level 95.1 %
Extraction speed 4.4 X
Track quality 100.0 %
Test CRC 540B016E
Copy CRC 540B016E
Accurately ripped (confidence 1) [28BCEE9D] (AR v2)
Copy OK
Track 4
Filename C:\EAC Rips\Billy Wooten And Richard Groove Holmes - The Place To Start (1986)\04 - Blue Bossa.wav
Pre-gap length 0:00:01.22
Peak level 100.0 %
Extraction speed 2.0 X
Track quality 99.9 %
Test CRC 93EA4463
Copy CRC 93EA4463
Accurately ripped (confidence 1) [12EBE226] (AR v2)
Copy OK
Track 5
Filename C:\EAC Rips\Billy Wooten And Richard Groove Holmes - The Place To Start (1986)\05 - Flamingo.wav
Peak level 100.0 %
Extraction speed 5.6 X
Track quality 100.0 %
Test CRC F6FE87A8
Copy CRC F6FE87A8
Accurately ripped (confidence 1) [7B37FFC8] (AR v2)
Copy OK
Track 6
Filename C:\EAC Rips\Billy Wooten And Richard Groove Holmes - The Place To Start (1986)\06 - Groove's Blues.wav
Pre-gap length 0:00:00.94
Peak level 100.0 %
Extraction speed 5.9 X
Track quality 100.0 %
Test CRC 5E42973C
Copy CRC 5E42973C
Accurately ripped (confidence 1) [E3EECA6B] (AR v2)
Copy OK
Track 7
Filename C:\EAC Rips\Billy Wooten And Richard Groove Holmes - The Place To Start (1986)\07 - It's A Groove's Thing.wav
Pre-gap length 0:00:00.56
Peak level 100.0 %
Extraction speed 4.1 X
Track quality 99.9 %
Test CRC 760055B0
Copy CRC 760055B0
Accurately ripped (confidence 1) [AB2A17EE] (AR v2)
Copy OK
All tracks accurately ripped
No errors occurred
End of status report
---- CUETools DB Plugin V2.1.6
[CTDB TOCID: .8FsiOoGlUS3v.JPtp2yf0QTG_0-] found
Submit result: already submitted
Track | CTDB Status
1 | (1/1) Accurately ripped
2 | (1/1) Accurately ripped
3 | (1/1) Accurately ripped
4 | (1/1) Accurately ripped
5 | (1/1) Accurately ripped
6 | (1/1) Accurately ripped
7 | (1/1) Accurately ripped
==== Log checksum 8CFA7133B45B160DE408D10BAF1DD26F889DE96E07C0AB73026ED6A00A3212EE ====
 
Содержание индексной карты (.CUE)
REM GENRE Jazz
REM DATE 1986
REM DISCID 6E0F4807
REM COMMENT "ExactAudioCopy v1.0b6"
CATALOG 4995879937402
PERFORMER "Billy Wooten & Richard Groove Holmes"
TITLE "The Place to Start"
FILE "01 - I Remember April.wav" WAVE
TRACK 01 AUDIO
TITLE "I Remember April"
PERFORMER "Billy Wooten & Richard Groove Holmes"
INDEX 01 00:00:00
TRACK 02 AUDIO
TITLE "Bags"
PERFORMER "Billy Wooten & Richard Groove Holmes"
INDEX 00 11:16:28
FILE "02 - Bags.wav" WAVE
INDEX 01 00:00:00
TRACK 03 AUDIO
TITLE "My Funny Valentine"
PERFORMER "Billy Wooten & Richard Groove Holmes"
INDEX 00 10:35:58
FILE "03 - My Funny Valentine.wav" WAVE
INDEX 01 00:00:00
TRACK 04 AUDIO
TITLE "Blue Bossa"
PERFORMER "Billy Wooten & Richard Groove Holmes"
INDEX 00 07:23:13
FILE "04 - Blue Bossa.wav" WAVE
INDEX 01 00:00:00
FILE "05 - Flamingo.wav" WAVE
TRACK 05 AUDIO
TITLE "Flamingo"
PERFORMER "Billy Wooten & Richard Groove Holmes"
INDEX 01 00:00:00
TRACK 06 AUDIO
TITLE "Groove's Blues"
PERFORMER "Billy Wooten & Richard Groove Holmes"
INDEX 00 11:22:63
FILE "06 - Groove's Blues.wav" WAVE
INDEX 01 00:00:00
TRACK 07 AUDIO
TITLE "It's a Groove's Thing"
PERFORMER "Billy Wooten & Richard Groove Holmes"
INDEX 00 07:39:56
FILE "07 - It's a Groove's Thing.wav" WAVE
INDEX 01 00:00:00
 
Отчет CUETools
[CUETools log; Date: 13.07.2015 13:32:31; Version: 2.1.5]
[CTDB TOCID: .8FsiOoGlUS3v.JPtp2yf0QTG_0-] found.
Track | CTDB Status
1 | (1/1) Accurately ripped
2 | (1/1) Accurately ripped
3 | (1/1) Accurately ripped
4 | (1/1) Accurately ripped
5 | (1/1) Accurately ripped
6 | (1/1) Accurately ripped
7 | (1/1) Accurately ripped
[AccurateRip ID: 0013d540-00759f21-6e0f4807] found.
Track [ CRC | V2 ] Status
01 [c62d2f94|8ad767bb] (0+1/1) Accurately ripped
02 [fd43fdb8|317b57b4] (0+1/1) Accurately ripped
03 [14ba8e61|28bcee9d] (0+1/1) Accurately ripped
04 [50d43bfc|12ebe226] (0+1/1) Accurately ripped
05 [8b645435|7b37ffc8] (0+1/1) Accurately ripped
06 [a86cedf8|e3eeca6b] (0+1/1) Accurately ripped
07 [279ac2ac|ab2a17ee] (0+1/1) Accurately ripped
Track Peak [ CRC32 ] [W/O NULL] [ LOG ]
-- 100,0 [E9AA5A68] [35DB990A]
01 100,0 [07060001] [EFF1FDAD] CRC32
02 100,0 [DBE4DC11] [A2A693B1] CRC32
03 95,1 [540B016E] [409D48E5] CRC32
04 100,0 [93EA4463] [E6B90B4C] CRC32
05 100,0 [F6FE87A8] [8090982D] CRC32
06 100,0 [5E42973C] [520CC37A] CRC32
07 100,0 [760055B0] [8C89C614] CRC32
 
Об альбоме (сборнике)
A lost chapter of genius from vibes player Billy Wooten – and a great one too! The set's a rare outing with Hammond giant Groove Holmes – laid out nicely here in a quartet setting that offers up plenty of Billy's great vibes mixed with the organ – in a mode that's very different than anything else Wooten ever recorded, and which really takes us back to the best soul jazz years of 60s Prestige Records! The group also features great tenor from Jimmy Coe – a player we don't really know at all – and drums from Jozell Carter, who works nicely with the rhythms from Holmes' work on the Hammond. Titles include "Blue Bossa", "Bags", "Groove's Blues", "It's A Groove Thing", and "I Remember April".
Приватный:
Нет (DHT включён)
Размер:
352.44 Мб (369,563,790 байт) » файлов: 14
Участники:
0 раздают, 0 качают (0 участников всего)
Внешние участники:
5 раздают, 2 качают (7 участников всего) [ Обновить ]
Есть вопросы - пишите личное сообщение пользователю M0p94ok.
07:05
152
Нет комментариев. Ваш будет первым!