Поиск

(Soul-Jazz) [CD] The Wooden Glass feat. Billy Wooten - Recorded Live - 1972 (2004 Japan Edition), FLAC (tracks+.cue), lossless

(Soul-Jazz) [CD] The Wooden Glass feat. Billy Wooten - Recorded Live - 1972 (2004 Japan Edition), FLAC (tracks+.cue), lossless
Треклист:
The Wooden Glass feat. Billy Wooten - Recorded Live
Жанр: Soul-Jazz
Носитель: CD
Страна-производитель диска (релиза): Япония
Год издания: 2004
Издатель (лейбл): P-Vine Records
Номер по каталогу: PCD-23512
Страна исполнителя (группы): США
Аудиокодек: FLAC (*.flac)
Тип рипа: tracks+.cue
Битрейт аудио: lossless
Продолжительность: 56:37
Источник (релизер): djbaconfat (what)
Наличие сканов в содержимом раздачи: нет
Треклист:
01. Monkey Hips and Rice (10:07)
02. We've Only Just Begin (6:02)
03. Joy Ride (8:16)
04. In the Rain (5:26)
05. Day Dreaming (5:23)
06. Love Is Here (12:43)
07. 6 Variations of "In the Rain" (feat. Madlib) (8:40)
Состав:
Emmanuel Riggins - organ
William Roach - guitar
Harold Cardwell - drums
Billy Wooten - vibraphone
#1-6 recorded live at 19th Hole Night Club, Indianapolis in 1972.
 
Лог создания рипа
X Lossless Decoder version 20141129 (148.1)
XLD extraction logfile from 2014-12-30 17:24:30 -0500
The Wooden Glass / Live
Used drive : MATSHITA DVD-R UJ-8A8 (revision HA13)
Media type : Pressed CD
Ripper mode : XLD Secure Ripper
Disable audio cache : OK for the drive with a cache less than 1375KiB
Make use of C2 pointers : NO
Read offset correction : 102
Max retry count : 100
Gap status : Analyzed, Appended (except HTOA)
TOC of the extracted CD
Track | Start | Length | Start sector | End sector
---------------------------------------------------------
1 | 00:00:00 | 10:07:25 | 0 | 45549
2 | 10:07:25 | 06:02:05 | 45550 | 72704
3 | 16:09:30 | 08:16:20 | 72705 | 109924
4 | 24:25:50 | 05:25:67 | 109925 | 134366
5 | 29:51:42 | 05:23:25 | 134367 | 158616
6 | 35:14:67 | 12:42:68 | 158617 | 215834
7 | 47:57:60 | 08:40:37 | 215835 | 254871
AccurateRip Summary (DiscID: 000f227f-005a5de2-6c0d4607)
Track 01 : OK (v1+v2, confidence 5/5)
Track 02 : OK (v1+v2, confidence 6/6)
Track 03 : OK (v1+v2, confidence 6/6)
Track 04 : OK (v1+v2, confidence 6/6)
Track 05 : OK (v1+v2, confidence 5/5)
Track 06 : OK (v1+v2, confidence 5/5)
Track 07 : OK (v1+v2, confidence 5/5)
->All tracks accurately ripped.
All Tracks
Album gain : -8.31 dB
Peak : 0.999939
Statistics
Read error : 0
Jitter error (maybe fixed) : 0
Retry sector count : 0
Damaged sector count : 0
Track 01
Filename : /Users/baconfat/Desktop/XLD rips/The Wooden Glass - Live (2004) [FLAC]/01 Monkey Hips And Rice.flac
Pre-gap length : 00:02:00
Track gain : -7.71 dB
Peak : 0.999603
CRC32 hash (test run) : BC57FB02
CRC32 hash : BC57FB02
CRC32 hash (skip zero) : F86A4CCF
AccurateRip v1 signature : 26CB287C
AccurateRip v2 signature : 87BD5291
->Accurately ripped (v1+v2, confidence 2+3/5)
Statistics
Read error : 0
Jitter error (maybe fixed) : 0
Retry sector count : 0
Damaged sector count : 0
Track 02
Filename : /Users/baconfat/Desktop/XLD rips/The Wooden Glass - Live (2004) [FLAC]/02 We've Only Just Begin.flac
Track gain : -7.49 dB
Peak : 0.999908
CRC32 hash (test run) : 67E3B3BD
CRC32 hash : 67E3B3BD
CRC32 hash (skip zero) : E1EE6F68
AccurateRip v1 signature : BD0C5A9C
AccurateRip v2 signature : 7D56ECE3
->Accurately ripped (v1+v2, confidence 3+3/6)
Statistics
Read error : 0
Jitter error (maybe fixed) : 0
Retry sector count : 0
Damaged sector count : 0
Track 03
Filename : /Users/baconfat/Desktop/XLD rips/The Wooden Glass - Live (2004) [FLAC]/03 Joy Ride.flac
Track gain : -8.10 dB
Peak : 0.999695
CRC32 hash (test run) : E97634DF
CRC32 hash : E97634DF
CRC32 hash (skip zero) : 5AAEAF8E
AccurateRip v1 signature : 11A4299B
AccurateRip v2 signature : FD0594B6
->Accurately ripped (v1+v2, confidence 3+3/6)
Statistics
Read error : 0
Jitter error (maybe fixed) : 0
Retry sector count : 0
Damaged sector count : 0
Track 04
Filename : /Users/baconfat/Desktop/XLD rips/The Wooden Glass - Live (2004) [FLAC]/04 In The Rain.flac
Track gain : -7.71 dB
Peak : 0.999908
CRC32 hash (test run) : D664AE2C
CRC32 hash : D664AE2C
CRC32 hash (skip zero) : 3351A2B9
AccurateRip v1 signature : 86126AE7
AccurateRip v2 signature : C5A31135
->Accurately ripped (v1+v2, confidence 3+3/6)
Statistics
Read error : 0
Jitter error (maybe fixed) : 0
Retry sector count : 0
Damaged sector count : 0
Track 05
Filename : /Users/baconfat/Desktop/XLD rips/The Wooden Glass - Live (2004) [FLAC]/05 Day Dreaming.flac
Track gain : -7.41 dB
Peak : 0.999908
CRC32 hash (test run) : F4C67E4A
CRC32 hash : F4C67E4A
CRC32 hash (skip zero) : C898FDCC
AccurateRip v1 signature : 7F44D0A2
AccurateRip v2 signature : 1DD9119A
->Accurately ripped (v1+v2, confidence 2+3/5)
Statistics
Read error : 0
Jitter error (maybe fixed) : 0
Retry sector count : 0
Damaged sector count : 0
Track 06
Filename : /Users/baconfat/Desktop/XLD rips/The Wooden Glass - Live (2004) [FLAC]/06 Love Is Here.flac
Track gain : -9.02 dB
Peak : 0.999695
CRC32 hash (test run) : 15CF9996
CRC32 hash : 15CF9996
CRC32 hash (skip zero) : 33008BDC
AccurateRip v1 signature : D602C77A
AccurateRip v2 signature : F11120C9
->Accurately ripped (v1+v2, confidence 2+3/5)
Statistics
Read error : 0
Jitter error (maybe fixed) : 0
Retry sector count : 0
Damaged sector count : 0
Track 07
Filename : /Users/baconfat/Desktop/XLD rips/The Wooden Glass - Live (2004) [FLAC]/07 Madlib - 6 Variations Of The Rain (Bonus Track).flac
Pre-gap length : 00:04:43
Track gain : -6.72 dB
Peak : 0.999939
CRC32 hash (test run) : 2F0BFBE5
CRC32 hash : 2F0BFBE5
CRC32 hash (skip zero) : 5F0CCE6A
AccurateRip v1 signature : AD096E1F
AccurateRip v2 signature : A3FC2E60
->Accurately ripped (v1+v2, confidence 2+3/5)
Statistics
Read error : 0
Jitter error (maybe fixed) : 0
Retry sector count : 0
Damaged sector count : 0
No errors occurred
End of status report
-----BEGIN XLD SIGNATURE-----
1bRWm5YqqP1c3O6yGENPqBAR_WiiMqJXT8my_JpikaPkHFWDuOOrhnBTxGlCIX4lD0mG3meDmI_FYECqBuKJG6H9mbUQoxs8WWPVAAO
-----END XLD SIGNATURE-----
 
Содержание индексной карты (.CUE)
TITLE "Recorded Live"
PERFORMER "The Wooden Glass feat. Billy Wooten"
CATALOG 4995879235126
REM GENRE "Jazz"
REM DATE "1972"
REM DISCID 6C0D4607
REM REPLAYGAIN_ALBUM_GAIN -8.31 dB
REM REPLAYGAIN_ALBUM_PEAK 0.999939
FILE "01 - Monkey Hips and Rice.flac" WAVE
TRACK 01 AUDIO
TITLE "Monkey Hips and Rice"
REM REPLAYGAIN_TRACK_GAIN -7.71 dB
REM REPLAYGAIN_TRACK_PEAK 0.999603
INDEX 01 00:00:00
FILE "02 - We've Only Just Begin.flac" WAVE
TRACK 02 AUDIO
TITLE "We've Only Just Begin"
REM REPLAYGAIN_TRACK_GAIN -7.49 dB
REM REPLAYGAIN_TRACK_PEAK 0.999908
INDEX 01 00:00:00
FILE "03 - Joy Ride.flac" WAVE
TRACK 03 AUDIO
TITLE "Joy Ride"
REM REPLAYGAIN_TRACK_GAIN -8.10 dB
REM REPLAYGAIN_TRACK_PEAK 0.999695
INDEX 01 00:00:00
FILE "04 - In the Rain.flac" WAVE
TRACK 04 AUDIO
TITLE "In the Rain"
REM REPLAYGAIN_TRACK_GAIN -7.71 dB
REM REPLAYGAIN_TRACK_PEAK 0.999908
INDEX 01 00:00:00
FILE "05 - Day Dreaming.flac" WAVE
TRACK 05 AUDIO
TITLE "Day Dreaming"
REM REPLAYGAIN_TRACK_GAIN -7.41 dB
REM REPLAYGAIN_TRACK_PEAK 0.999908
INDEX 01 00:00:00
FILE "06 - Love Is Here.flac" WAVE
TRACK 06 AUDIO
TITLE "Love Is Here"
REM REPLAYGAIN_TRACK_GAIN -9.02 dB
REM REPLAYGAIN_TRACK_PEAK 0.999695
INDEX 01 00:00:00
TRACK 07 AUDIO
TITLE "6 Variations of 'In the Rain' (feat. Madlib)"
REM REPLAYGAIN_TRACK_GAIN -6.72 dB
REM REPLAYGAIN_TRACK_PEAK 0.999939
INDEX 00 12:38:25
FILE "07 - 6 Variations of 'In the Rain' (feat. Madlib).flac" WAVE
INDEX 01 00:00:00
 
Отчет CUETools
[CUETools log; Date: 13.07.2015 13:10:08; Version: 2.1.5]
[CTDB TOCID: 7BbepG3hGWU11CLjDUrBJdzzKsg-] found.
Track | CTDB Status
1 | (6/6) Accurately ripped
2 | (6/6) Accurately ripped
3 | (6/6) Accurately ripped
4 | (6/6) Accurately ripped
5 | (6/6) Accurately ripped
6 | (6/6) Accurately ripped
7 | (6/6) Accurately ripped
[AccurateRip ID: 000f227f-005a5de2-6c0d4607] found.
Track [ CRC | V2 ] Status
01 [26cb287c|87bd5291] (2+3/5) Accurately ripped
02 [bd0c5a9c|7d56ece3] (3+3/6) Accurately ripped
03 [11a4299b|fd0594b6] (3+3/6) Accurately ripped
04 [86126ae7|c5a31135] (3+3/6) Accurately ripped
05 [7f44d0a2|1dd9119a] (2+3/5) Accurately ripped
06 [d602c77a|f11120c9] (2+3/5) Accurately ripped
07 [ad096e1f|a3fc2e60] (2+3/5) Accurately ripped
Track Peak [ CRC32 ] [W/O NULL]
-- 99,9 [3D90FCC1] [031C2D52]
01 99,9 [BC57FB02] [F86A4CCF]
02 99,9 [67E3B3BD] [E1EE6F68]
03 99,9 [E97634DF] [5AAEAF8E]
04 99,9 [D664AE2C] [3351A2B9]
05 99,9 [F4C67E4A] [C898FDCC]
06 99,9 [15CF9996] [33008BDC]
07 99,9 [2F0BFBE5] [5F0CCE6A]
 
Об альбоме (сборнике)
Mad funky vibes from The Wooden Glass – a group led by vibist Billy Wooten – an obscure player in the history books, but one who has had a huge influence on 21st Century groove! Billy's got a hard style on the vibes that's like Bobby Hutcherson and Roy Ayers at their soulful best – working here with a tight combo that includes guitar and organ, very much in the mode of his classic work with the slightly more famous (although equally obscure) Indianapolis combo The Ninteenth Whole! The set's a live one, but it really cooks with a sweet electric feel – echoey, funky, and soulful – as tunes spin out in a staggering approach to the vibes that's unmatched by any record of its time. Billy was a huge influence on Madlib and the sound of Yesterday's New Quintet – and hearing this set, it's virtually a blueprint for that group's current work! Includes great covers of "In The Rain", "Day Dreaming", and "Love Is Here" – plus Wooten's excellent original tracks "Monkey Hips & Rice" and "Joy Ride".
Приватный:
Нет (DHT включён)
Размер:
394.63 Мб (413,797,278 байт) » файлов: 16
Участники:
0 раздают, 0 качают (0 участников всего)
Внешние участники:
8 раздают, 2 качают (10 участников всего) [ Обновить ]
Есть вопросы - пишите личное сообщение пользователю M0p94ok.
07:05
83
Нет комментариев. Ваш будет первым!