Поиск

(Funk) [CD] Mikio Masuda - Mickey's Mouth - 1976 (2015 Japan Edition), FLAC (tracks+.cue), lossless

(Funk) [CD] Mikio Masuda - Mickey's Mouth - 1976 (2015 Japan Edition), FLAC (tracks+.cue), lossless
Треклист:
Mikio Masuda - Mickey's Mouth
Жанр: Funk
Носитель: CD
Страна-производитель диска (релиза): Япония
Год издания: 2015
Издатель (лейбл): East Wind/Universal Classics & Jazz
Номер по каталогу: UCCJ-9169
Аудиокодек: FLAC (*.flac)
Тип рипа: tracks+.cue
Битрейт аудио: lossless
Продолжительность: 37:19
Источник (релизер): wikieup (what)
Наличие сканов в содержимом раздачи: сетевые
Треклист:
01. What's Happening (Saitoh) - 4:51
02. Let's Get Together (Masuda) - 9:11
03. Hello Jess (Kawakami) - 5:05
04. I Saw the Light (Masuda) - 11:18
05. Airplane (Masuda) - 6:54
Состав:
Mikio Masuda - Fender Rhodes electric piano, Hohner D-6 Clavinet, Yamaha YC-30 organ, Mini Korg synthesizer, ARP String Ensemble
Masayoshi Saitoh - guitar
Osamu Kawakami - electric bass
O Jess - drums
Guilherme Franco - congas, tablas, cuica, voice, percussion
Kohsuke Mine - soprano saxophone (#4)
Recorded at Onkio Haus, Tokyo on April 14-15, 1976 and at Phonogram Studio, Tokyo on June 9-14, 1976.
 
Лог создания рипа
Exact Audio Copy V1.0 beta 4 from 7. December 2014
EAC extraction logfile from 3. February 2015, 17:48
Mikio Masuda / Mickey's Mouth [2015 Reissue]
Used drive : HL-DT-STDVDRAM GU70N Adapter: 1 ID: 0
Read mode : Secure
Utilize accurate stream : Yes
Defeat audio cache : Yes
Make use of C2 pointers : No
Read offset correction : 48
Overread into Lead-In and Lead-Out : No
Fill up missing offset samples with silence : Yes
Delete leading and trailing silent blocks : No
Null samples used in CRC calculations : Yes
Used interface : Native Win32 interface for Win NT & 2000
Gap handling : Appended to previous track
Used output format : User Defined Encoder
Selected bitrate : 1024 kBit/s
Quality : High
Add ID3 tag : No
Command line compressor : C:\Program Files (x86)\Exact Audio Copy\Flac\flac.exe
Additional command line options : -8 -V -T "ARTIST=%artist%" -T "TITLE=%title%" -T "ALBUM=%albumtitle%" -T "DATE=%year%" -T "TRACKNUMBER=%tracknr%" -T "GENRE=%genre%" -T "PERFORMER=%albuminterpret%" -T "COMPOSER=%composer%" %haslyrics%--tag-from-file=LYRICS="%lyricsfile%"%haslyrics% -T "ALBUMARTIST=%albumartist%" -T "DISCNUMBER=%cdnumber%" -T "TOTALDISCS=%totalcds%" -T "TOTALTRACKS=%numtracks%" -T "COMMENT=%comment%" %source% -o %dest%
TOC of the extracted CD
Track | Start | Length | Start sector | End sector
---------------------------------------------------------
1 | 0:00.00 | 4:51.02 | 0 | 21826
2 | 4:51.02 | 9:10.70 | 21827 | 63146
3 | 14:01.72 | 5:04.55 | 63147 | 86001
4 | 19:06.52 | 11:18.35 | 86002 | 136886
5 | 30:25.12 | 6:54.28 | 136887 | 167964
Track 1
Filename C:\Users\jeffrey.baldwin\Desktop\Waf\EAC\01 - What's Happening.wav
Pre-gap length 0:00:02.00
Peak level 83.3 %
Extraction speed 2.7 X
Track quality 100.0 %
Test CRC 16E9CE45
Copy CRC 16E9CE45
Track not present in AccurateRip database
Copy OK
Track 2
Filename C:\Users\jeffrey.baldwin\Desktop\Waf\EAC\02 - Let's Get Together.wav
Pre-gap length 0:00:01.36
Peak level 90.9 %
Extraction speed 3.4 X
Track quality 100.0 %
Test CRC D926B350
Copy CRC D926B350
Track not present in AccurateRip database
Copy OK
Track 3
Filename C:\Users\jeffrey.baldwin\Desktop\Waf\EAC\03 - Hello Jess.wav
Pre-gap length 0:00:01.29
Peak level 100.0 %
Extraction speed 1.6 X
Track quality 100.0 %
Test CRC 79FD7295
Copy CRC 79FD7295
Track not present in AccurateRip database
Copy OK
Track 4
Filename C:\Users\jeffrey.baldwin\Desktop\Waf\EAC\04 - I Saw The Light.wav
Pre-gap length 0:00:01.56
Peak level 100.0 %
Extraction speed 1.9 X
Track quality 100.0 %
Test CRC 6DAA3EEA
Copy CRC 6DAA3EEA
Track not present in AccurateRip database
Copy OK
Track 5
Filename C:\Users\jeffrey.baldwin\Desktop\Waf\EAC\05 - Airplane.wav
Pre-gap length 0:00:01.42
Peak level 100.0 %
Extraction speed 2.0 X
Track quality 100.0 %
Test CRC 52A9C396
Copy CRC 52A9C396
Track not present in AccurateRip database
Copy OK
None of the tracks are present in the AccurateRip database
No errors occurred
End of status report
---- CUETools DB Plugin V2.1.4
[CTDB TOCID: WdImKJds_Vc7MkO0JyXFyj8u3_4-] disk not present in database
Submit result: WdImKJds_Vc7MkO0JyXFyj8u3_4- has been uploaded
==== Log checksum CA71DF2BFED95CEFE8DA9F476D2AC7996CA7E07D5AF1A775B273E4DB9710342B ====
 
Содержание индексной карты (.CUE)
REM GENRE Jazz
REM DATE 1976
REM DISCID 3F08BF05
REM COMMENT "ExactAudioCopy v1.0b4"
PERFORMER "Mikio Masuda"
TITLE "Mickey's Mouth"
FILE "01 - What's Happening.wav" WAVE
TRACK 01 AUDIO
TITLE "What's Happening"
PERFORMER "Mikio Masuda"
INDEX 01 00:00:00
TRACK 02 AUDIO
TITLE "Let's Get Together"
PERFORMER "Mikio Masuda"
INDEX 00 04:49:50
FILE "02 - Let's Get Together.wav" WAVE
INDEX 01 00:00:00
TRACK 03 AUDIO
TITLE "Hello Jess"
PERFORMER "Mikio Masuda"
INDEX 00 09:09:48
FILE "03 - Hello Jess.wav" WAVE
INDEX 01 00:00:00
TRACK 04 AUDIO
TITLE "I Saw the Light"
PERFORMER "Mikio Masuda"
INDEX 00 05:03:13
FILE "04 - I Saw the Light.wav" WAVE
INDEX 01 00:00:00
TRACK 05 AUDIO
TITLE "Airplane"
PERFORMER "Mikio Masuda"
INDEX 00 11:17:03
FILE "05 - Airplane.wav" WAVE
INDEX 01 00:00:00
 
Отчет CUETools
[CUETools log; Date: 10.09.2015 0:19:12; Version: 2.1.5]
[CTDB TOCID: WdImKJds_Vc7MkO0JyXFyj8u3_4-] found.
Track | CTDB Status
1 | (2/2) Accurately ripped
2 | (2/2) Accurately ripped
3 | (2/2) Accurately ripped
4 | (2/2) Accurately ripped
5 | (2/2) Accurately ripped
[AccurateRip ID: 000742b4-0022a091-3f08bf05] found.
Track [ CRC | V2 ] Status
01 [5ef540fe|18ec3839] (0+1/1) Accurately ripped
02 [6380d38b|6a88077a] (0+1/1) Accurately ripped
03 [5157f693|dea568c9] (0+1/1) Accurately ripped
04 [b9ad6536|80a85c79] (0+1/1) Accurately ripped
05 [129dc224|02aafc31] (0+1/1) Accurately ripped
Track Peak [ CRC32 ] [W/O NULL] [ LOG ]
-- 100,0 [1F9DDCAD] [83EBCE46]
01 83,3 [16E9CE45] [B2504BF5] CRC32
02 90,9 [D926B350] [0C70A985] CRC32
03 100,0 [79FD7295] [A6C4C2D2] CRC32
04 100,0 [6DAA3EEA] [1FAD6FCB] CRC32
05 100,0 [52A9C396] [A40DAA8A] CRC32
 
Об альбоме (сборнике)
A killer set of electric keyboards – with a groove that stretches from wigged-out Herbie Hancock to the laidback style of Bob James on CTI! Mikio Masuda plays a range of different instruments – from Fender Rhodes to Clavinet, Yamaha organ, ARP, and mini-Korg – and the group behind him includes guitar, bass, drums, soprano sax, and lots of percussion – all jamming together on the fiercest tracks like a full-on version of The Headhunters! Tracks are all long, and the album's proof that Japan was turning out some amazing electric jazz albums in the 70s – real classics that stand with the best from America at the time. Titles include "Hello Jess", "What's Happening", "I Saw The Light", and "Airplane".
Приватный:
Нет (DHT включён)
Размер:
223.19 Мб (234,036,835 байт) » файлов: 14
Участники:
0 раздают, 0 качают (0 участников всего)
Внешние участники:
5 раздают, 2 качают (7 участников всего) [ Обновить ]
Есть вопросы - пишите личное сообщение пользователю M0p94ok.
07:04
61
Нет комментариев. Ваш будет первым!