Поиск

(R&B, Soul Jazz) [CD] Richard Evans - Dealing with Hard Times - 1972 (2008), FLAC (tracks+.cue), lossless

(R&B, Soul Jazz) [CD] Richard Evans - Dealing with Hard Times - 1972 (2008), FLAC (tracks+.cue), lossless
Треклист:
Richard Evans - Dealing with Hard Times
Жанр: R&B, Soul Jazz
Носитель: CD
Страна-производитель диска (релиза): США
Год издания: 1972 (2008)
Издатель (лейбл): Atlantic/Rhino/Collectables
Номер по каталогу: COL-CD-7923
Аудиокодек: FLAC (*.flac)
Тип рипа: tracks+.cue
Битрейт аудио: lossless
Продолжительность: 37:29
Источник (релизер): stoichie
Наличие сканов в содержимом раздачи: да
Треклист:
01. Patutu (Evans) - 4:57
02. Mercy Mercy Me (The Ecology) (Gaye) - 3:31
03. The Wedding Song (Jones) - 5:17
04. Angela, My Sister (Evans) - 4:19
05. Dealing with Hard Times (Crowder) - 3:14
06. Ellie's Love Theme (Hayes) - 3:42
07. Wado City (Evans) - 3:42
08. Close to You (Bacharach-David) - 3:58
09. Pie Daddy's Dream (Evans) - 4:49
 
Лог создания рипа
Exact Audio Copy V1.0 beta 3 from 29. August 2011
EAC extraction logfile from 25. May 2014, 13:19
Richard Evans / Dealing With Hard Times
Used drive : HL-DT-STDVDRAM GT51N Adapter: 0 ID: 1
Read mode : Secure
Utilize accurate stream : Yes
Defeat audio cache : Yes
Make use of C2 pointers : No
Read offset correction : 103
Overread into Lead-In and Lead-Out : No
Fill up missing offset samples with silence : Yes
Delete leading and trailing silent blocks : No
Null samples used in CRC calculations : Yes
Used interface : Native Win32 interface for Win NT & 2000
Gap handling : Appended to previous track
Used output format : User Defined Encoder
Selected bitrate : 1024 kBit/s
Quality : High
Add ID3 tag : No
Command line compressor : C:\Program Files (x86)\FLAC\flac.exe
Additional command line options : -8 -V -T "ARTIST=%artist%" -T "TITLE=%title%" -T "ALBUM=%albumtitle%" -T "DATE=%year%" -T "TRACKNUMBER=%tracknr%" -T "GENRE=%genre%" -T "PERFORMER=%albuminterpret%" -T "COMPOSER=%composer%" %haslyrics%--tag-from-file=LYRICS="%lyricsfile%"%haslyrics% -T "ALBUMARTIST=%albumartist%" -T "DISCNUMBER=%cdnumber%" -T "TOTALDISCS=%totalcds%" -T "TOTALTRACKS=%numtracks%" -T "COMMENT=%comment%" %source% -o %dest%
TOC of the extracted CD
Track | Start | Length | Start sector | End sector
---------------------------------------------------------
1 | 0:00.00 | 4:56.52 | 0 | 22251
2 | 4:56.52 | 3:31.16 | 22252 | 38092
3 | 8:27.68 | 5:17.36 | 38093 | 61903
4 | 13:45.29 | 4:18.71 | 61904 | 81324
5 | 18:04.25 | 3:14.30 | 81325 | 95904
6 | 21:18.55 | 3:41.59 | 95905 | 112538
7 | 25:00.39 | 3:42.21 | 112539 | 129209
8 | 28:42.60 | 3:57.47 | 129210 | 147031
9 | 32:40.32 | 4:49.00 | 147032 | 168706
Track 1
Filename C:\EAC Rips\Richard Evans - Dealing With Hard Times (1972) {RM, COL-CD-7923}\01 Patutu.wav
Pre-gap length 0:00:02.00
Peak level 76.4 %
Extraction speed 3.0 X
Track quality 100.0 %
Test CRC 7908E36F
Copy CRC 7908E36F
Track not present in AccurateRip database
Copy OK
Track 2
Filename C:\EAC Rips\Richard Evans - Dealing With Hard Times (1972) {RM, COL-CD-7923}\02 Mercy Mercy Me (The Ecology).wav
Peak level 46.5 %
Extraction speed 3.3 X
Track quality 100.0 %
Test CRC 05179EE2
Copy CRC 05179EE2
Track not present in AccurateRip database
Copy OK
Track 3
Filename C:\EAC Rips\Richard Evans - Dealing With Hard Times (1972) {RM, COL-CD-7923}\03 The Wedding Song.wav
Peak level 57.8 %
Extraction speed 3.7 X
Track quality 100.0 %
Test CRC DA3D8B0C
Copy CRC DA3D8B0C
Track not present in AccurateRip database
Copy OK
Track 4
Filename C:\EAC Rips\Richard Evans - Dealing With Hard Times (1972) {RM, COL-CD-7923}\04 Angela, My Sister.wav
Peak level 56.8 %
Extraction speed 3.2 X
Track quality 99.9 %
Test CRC A190BF11
Copy CRC A190BF11
Track not present in AccurateRip database
Copy OK
Track 5
Filename C:\EAC Rips\Richard Evans - Dealing With Hard Times (1972) {RM, COL-CD-7923}\05 Dealing With Hard Times.wav
Peak level 67.4 %
Extraction speed 3.9 X
Track quality 100.0 %
Test CRC 3E8AC91A
Copy CRC 3E8AC91A
Track not present in AccurateRip database
Copy OK
Track 6
Filename C:\EAC Rips\Richard Evans - Dealing With Hard Times (1972) {RM, COL-CD-7923}\06 Ellie's Love Theme.wav
Peak level 68.2 %
Extraction speed 3.4 X
Track quality 99.9 %
Test CRC EF89B85D
Copy CRC EF89B85D
Track not present in AccurateRip database
Copy OK
Track 7
Filename C:\EAC Rips\Richard Evans - Dealing With Hard Times (1972) {RM, COL-CD-7923}\07 Wado City.wav
Peak level 70.2 %
Extraction speed 4.4 X
Track quality 100.0 %
Test CRC C0102E5C
Copy CRC C0102E5C
Track not present in AccurateRip database
Copy OK
Track 8
Filename C:\EAC Rips\Richard Evans - Dealing With Hard Times (1972) {RM, COL-CD-7923}\08 Close To You.wav
Peak level 65.3 %
Extraction speed 4.6 X
Track quality 100.0 %
Test CRC A571B2AC
Copy CRC A571B2AC
Track not present in AccurateRip database
Copy OK
Track 9
Filename C:\EAC Rips\Richard Evans - Dealing With Hard Times (1972) {RM, COL-CD-7923}\09 Pie Daddy's Dream.wav
Peak level 68.1 %
Extraction speed 5.0 X
Track quality 100.0 %
Test CRC C2A9CAD7
Copy CRC C2A9CAD7
Track not present in AccurateRip database
Copy OK
None of the tracks are present in the AccurateRip database
No errors occurred
End of status report
---- CUETools DB Plugin V2.1.3
[CTDB TOCID: OnIcR3U2kyCDJR2nU4fmFR138H4-] disk not present in database, Submit result: OnIcR3U2kyCDJR2nU4fmFR138H4- has been uploaded
==== Log checksum 45207BFB1C12099C290B22477ED4865C01590A86FAA538DC8315CDD0F65490A8 ====
 
Содержание индексной карты (.CUE)
REM GENRE Jazz
REM DATE 1972
REM DISCID 7608C909
REM COMMENT "ExactAudioCopy v1.0b3"
PERFORMER "Richard Evans"
TITLE "Dealing with Hard Times"
FILE "01 - Patutu.wav" WAVE
TRACK 01 AUDIO
TITLE "Patutu"
PERFORMER "Richard Evans"
ISRC USAT20802594
INDEX 01 00:00:00
FILE "02 - Mercy Mercy Me (The Ecology).wav" WAVE
TRACK 02 AUDIO
TITLE "Mercy Mercy Me (The Ecology)"
PERFORMER "Richard Evans"
ISRC USAT20802595
INDEX 01 00:00:00
FILE "03 - The Wedding Song.wav" WAVE
TRACK 03 AUDIO
TITLE "The Wedding Song"
PERFORMER "Richard Evans"
ISRC USAT20802596
INDEX 01 00:00:00
FILE "04 - Angela, My Sister.wav" WAVE
TRACK 04 AUDIO
TITLE "Angela, My Sister"
PERFORMER "Richard Evans"
ISRC USAT20400968
INDEX 01 00:00:00
FILE "05 - Dealing with Hard Times.wav" WAVE
TRACK 05 AUDIO
TITLE "Dealing with Hard Times"
PERFORMER "Richard Evans"
ISRC USAT20802597
INDEX 01 00:00:00
FILE "06 - Ellie's Love Theme.wav" WAVE
TRACK 06 AUDIO
TITLE "Ellie's Love Theme"
PERFORMER "Richard Evans"
ISRC USAT20802598
INDEX 01 00:00:00
FILE "07 - Wado City.wav" WAVE
TRACK 07 AUDIO
TITLE "Wado City"
PERFORMER "Richard Evans"
ISRC USAT20802599
INDEX 01 00:00:00
FILE "08 - Close to You.wav" WAVE
TRACK 08 AUDIO
TITLE "Close to You"
PERFORMER "Richard Evans"
ISRC USAT20802600
INDEX 01 00:00:00
FILE "09 - Pie Daddy's Dream.wav" WAVE
TRACK 09 AUDIO
TITLE "Pie Daddy's Dream"
PERFORMER "Richard Evans"
ISRC USAT20802601
INDEX 01 00:00:00
 
Отчет CUETools
[CUETools log; Date: 13.07.2015 14:22:35; Version: 2.1.5]
HDCD: peak extend: none, transient filter: none, gain: none
[CTDB TOCID: OnIcR3U2kyCDJR2nU4fmFR138H4-] found.
Track | CTDB Status
1 | (1/1) Accurately ripped
2 | (1/1) Accurately ripped
3 | (1/1) Accurately ripped
4 | (1/1) Accurately ripped
5 | (1/1) Accurately ripped
6 | (1/1) Accurately ripped
7 | (1/1) Accurately ripped
8 | (1/1) Accurately ripped
9 | (1/1) Accurately ripped
[AccurateRip ID: 000d1387-005ee9ea-7608c909] disk not present in database.
Track Peak [ CRC32 ] [W/O NULL] [ LOG ]
-- 76,4 [8354E97F] [3EF7959A]
01 76,4 [7908E36F] [52D9A958] CRC32
02 46,5 [05179EE2] [E32CF6C9] CRC32
03 57,8 [DA3D8B0C] [144B47E2] CRC32
04 56,8 [A190BF11] [94DE869C] CRC32
05 67,4 [3E8AC91A] [C228B019] CRC32
06 68,2 [EF89B85D] [2445AF8A] CRC32
07 70,2 [C0102E5C] [8DB4ECD6] CRC32
08 65,3 [A571B2AC] [EA1FC677] CRC32
09 68,1 [C2A9CAD7] [E9C5EB50] CRC32
 
Об альбоме (сборнике)
A sublime set of soul instrumentals – very funky work, and sort of a 70s follow-up to the Soulful Strings albums on Cadet Records from the 60s! Maestro Richard Evans is at the top of his game here – stepping out with that hip Chisoul mode he first forged at Chess, tuned here towards some even more sophisticated modes for Atlantic Records! Many of Evan's previous players are on board to make the record great – including Lennie Druss on flute, Paul Serrano on trumpet, Odell Brown on organ, and Phil Upchurch on guitar. Evans himself plays bass for the record – using a very funky bottom sound – and the set also features some wicked vibes from the legendary Billy Wooten, working away from his Nineteenth Hole group on a rare major label date! The sound is blacksploitation soundtrack, part Curtom funk – and titles include the great originals "Pie Daddy's Dream", "Wado City", "Angela My Sister", and the great "Patutu" – which was done by the Soulful Strings – plus a few nice covers like "Mercy Mercy Me" and "Ellie's Love Theme", by Isaac Hayes.
 
Состав
Richard Evans - bass, arranger, conductor
Paul Serrano - trumpet
Leonard Druss - flute
Phil Upchurch - guitar
Sol Bobrov, E. Zlatoff-Mirsky - violins
Bruce Hayden, Arthur Ahlman - violas
Theodore Ratzer, Roger Malitz - cellos
Odell Brown - organ
Billy Wooten - vibes
Bob Crowder - drums
Marshall Thompson, Fred "Durf" Walker - percussion
Recorded at Paragon Recording Studios, Chicago, IL.
Приватный:
Нет (DHT включён)
Размер:
217.64 Мб (228,213,642 байт) » файлов: 19
Участники:
0 раздают, 0 качают (0 участников всего)
Внешние участники:
2 раздают, 1 качают (3 участников всего) [ Обновить ]
Есть вопросы - пишите личное сообщение пользователю M0p94ok.
07:06
72
Нет комментариев. Ваш будет первым!