Поиск

(Soul-Jazz, Hard Bop, Jazz Blues, Funk) Melvin Sparks - Texas Twister + '75 - 1995, FLAC (tracks+.cue), lossless

(Soul-Jazz, Hard Bop, Jazz Blues, Funk) Melvin Sparks - Texas Twister + '75 - 1995, FLAC (tracks+.cue), lossless
Треклист:
Melvin Sparks / Texas Twister + '75
Жанр: Soul-Jazz, Hard Bop, Jazz Blues, Funk
Страна-производитель диска (релиза): UK
Год издания: 1995
Издатель (лейбл): Ace Records Ltd.
Номер по каталогу: CDBGPD092
Страна исполнителя (группы): USA
Аудиокодек: FLAC (*.flac)
Тип рипа: tracks+.cue
Битрейт аудио: lossless
Продолжительность: 1:06:18.
Источник (релизер): clustert
Наличие сканов в содержимом раздачи: да
Треклист:
01. Whip! Whop! [0:04:00.35]
02. Gathering Together [0:09:20.48]
03. Judy's Groove [0:04:32.67]
04. Texas Twister [0:06:07.25]
05. Ain't No Woman (Like The One I Got) [0:03:28.38]
06. I Want To Talk About You [0:04:18.50]
07. Star In The Crescent [0:05:27.22]
08. I've Got To Have You (feat. Jimmy Scott On Vocal) [0:02:55.60]
09. Mockingbird [0:03:08.70]
10. Looking For A Love [0:03:02.43]
11. Get Ya Some [0:04:33.52]
12. Get Down With The Get Down [0:03:27.40]
13. Bump & Stomp [0:03:57.13]
14. In The Morning [0:04:01.57]
15. If You Want My Love (feat. Jimmy Scott On Vocal) [0:03:55.33]
 
Лог создания рипа
Exact Audio Copy V1.0 beta 3 from 29. August 2011
Отчёт EAC об извлечении, выполненном 3. марта 2015, 18:20
Melvin Sparks / Texas Twister + '75
Дисковод: ASUS DRW-1814BLT Adapter: 4 ID: 0
Режим чтения : Достоверность
Использование точного потока : Да
Отключение кэша аудио : Да
Использование указателей C2 : Нет
Коррекция смещения при чтении : 6
Способность читать области Lead-in и Lead-out : Нет
Заполнение пропущенных сэмплов тишиной : Да
Удаление блоков с тишиной в начале и конце : Нет
При вычислениях CRC использовались нулевые сэмплы : Да
Интерфейс : Встроенный Win32-интерфейс для Win NT/2000
Обработка зазоров : Добавлено к предыдущему треку
Выходной формат : Пользовательский кодировщик
Выбранный битрейт : 128 kBit/s
Качество : Высокий
Добавление ID3-тега : Нет
Утилита сжатия : C:\Program Files\Exact Audio Copy\Flac\flac.exe
Дополнительные параметры : -V -8 -T "Genre=%genre%" -T "Artist=%artist%" -T "Title=%title%" -T "Album=%albumtitle%" -T "Date=%year%" -T "Tracknumber=%tracknr%" -T "Comment=EAC1.0b2 FLAC -8" %source%
TOC извлечённого CD
Трек | Старт | Длительность | Начальный сектор | Конечный сектор
---------------------------------------------------------------------
1 | 0:00.32 | 4:00.35 | 32 | 18066
2 | 4:00.67 | 9:20.48 | 18067 | 60114
3 | 13:21.40 | 4:32.67 | 60115 | 80581
4 | 17:54.32 | 6:07.25 | 80582 | 108131
5 | 24:01.57 | 3:28.38 | 108132 | 123769
6 | 27:30.20 | 4:18.50 | 123770 | 143169
7 | 31:48.70 | 5:27.22 | 143170 | 167716
8 | 37:16.17 | 2:55.60 | 167717 | 180901
9 | 40:12.02 | 3:08.70 | 180902 | 195071
10 | 43:20.72 | 3:02.43 | 195072 | 208764
11 | 46:23.40 | 4:33.52 | 208765 | 229291
12 | 50:57.17 | 3:27.40 | 229292 | 244856
13 | 54:24.57 | 3:57.13 | 244857 | 262644
14 | 58:21.70 | 4:01.57 | 262645 | 280776
15 | 62:23.52 | 3:55.33 | 280777 | 298434
Трек 1
Имя файла R:\Раздача 40\Melvin Sparks - 1995 - Texas Twister (1973) - '75 (1975)\01 Whip! Whop!.wav
Длина предзазора 0:00:02.32
Пиковый уровень 99.6 %
Скорость извлечения 4.8 X
Качество трека 100.0 %
CRC теста 5C065635
CRC копии 5C065635
Точное извлечение (достоверность 2) [1B91C26B] (AR v1)
Копирование... OK
Трек 2
Имя файла R:\Раздача 40\Melvin Sparks - 1995 - Texas Twister (1973) - '75 (1975)\02 Gathering Together.wav
Пиковый уровень 99.6 %
Скорость извлечения 6.0 X
Качество трека 100.0 %
CRC теста 65957EEB
CRC копии 65957EEB
Точное извлечение (достоверность 2) [24CC08D2] (AR v1)
Копирование... OK
Трек 3
Имя файла R:\Раздача 40\Melvin Sparks - 1995 - Texas Twister (1973) - '75 (1975)\03 Judy's Groove.wav
Пиковый уровень 99.6 %
Скорость извлечения 4.5 X
Качество трека 99.9 %
CRC теста B9EECD72
CRC копии B9EECD72
Точное извлечение (достоверность 2) [98AD71F3] (AR v1)
Копирование... OK
Трек 4
Имя файла R:\Раздача 40\Melvin Sparks - 1995 - Texas Twister (1973) - '75 (1975)\04 Texas Twister.wav
Пиковый уровень 99.6 %
Скорость извлечения 6.9 X
Качество трека 100.0 %
CRC теста DEBE741A
CRC копии DEBE741A
Точное извлечение (достоверность 2) [20705B10] (AR v1)
Копирование... OK
Трек 5
Имя файла R:\Раздача 40\Melvin Sparks - 1995 - Texas Twister (1973) - '75 (1975)\05 Ain't No Woman (Like The One I Got).wav
Пиковый уровень 99.6 %
Скорость извлечения 4.8 X
Качество трека 99.9 %
CRC теста 9BE9C6E0
CRC копии 9BE9C6E0
Точное извлечение (достоверность 2) [D1C6D24F] (AR v1)
Копирование... OK
Трек 6
Имя файла R:\Раздача 40\Melvin Sparks - 1995 - Texas Twister (1973) - '75 (1975)\06 I Want To Talk About You.wav
Пиковый уровень 99.6 %
Скорость извлечения 7.3 X
Качество трека 100.0 %
CRC теста 1612BF73
CRC копии 1612BF73
Точное извлечение (достоверность 2) [1E4C9B51] (AR v1)
Копирование... OK
Трек 7
Имя файла R:\Раздача 40\Melvin Sparks - 1995 - Texas Twister (1973) - '75 (1975)\07 Star In The Crescent.wav
Пиковый уровень 99.6 %
Скорость извлечения 7.8 X
Качество трека 100.0 %
CRC теста C34F5702
CRC копии C34F5702
Точное извлечение (достоверность 2) [F0A3316D] (AR v1)
Копирование... OK
Трек 8
Имя файла R:\Раздача 40\Melvin Sparks - 1995 - Texas Twister (1973) - '75 (1975)\08 I've Got To Have You (feat. Jimmy Scott On Vocal).wav
Пиковый уровень 99.6 %
Скорость извлечения 7.4 X
Качество трека 100.0 %
CRC теста 3DA601F4
CRC копии 3DA601F4
Точное извлечение (достоверность 2) [D0623681] (AR v1)
Копирование... OK
Трек 9
Имя файла R:\Раздача 40\Melvin Sparks - 1995 - Texas Twister (1973) - '75 (1975)\09 Mockingbird.wav
Пиковый уровень 99.6 %
Скорость извлечения 7.6 X
Качество трека 100.0 %
CRC теста 64FD353F
CRC копии 64FD353F
Точное извлечение (достоверность 2) [1147DA7A] (AR v1)
Копирование... OK
Трек 10
Имя файла R:\Раздача 40\Melvin Sparks - 1995 - Texas Twister (1973) - '75 (1975)\10 Looking For A Love.wav
Пиковый уровень 99.6 %
Скорость извлечения 5.4 X
Качество трека 99.9 %
CRC теста 1C75312E
CRC копии 1C75312E
Точное извлечение (достоверность 2) [C5028EEC] (AR v1)
Копирование... OK
Трек 11
Имя файла R:\Раздача 40\Melvin Sparks - 1995 - Texas Twister (1973) - '75 (1975)\11 Get Ya Some.wav
Пиковый уровень 99.6 %
Скорость извлечения 8.5 X
Качество трека 100.0 %
CRC теста 72E99E0C
CRC копии 72E99E0C
Точное извлечение (достоверность 2) [0E6946D1] (AR v1)
Копирование... OK
Трек 12
Имя файла R:\Раздача 40\Melvin Sparks - 1995 - Texas Twister (1973) - '75 (1975)\12 Get Down With The Get Down.wav
Пиковый уровень 99.6 %
Скорость извлечения 8.4 X
Качество трека 100.0 %
CRC теста 5BD66723
CRC копии 5BD66723
Точное извлечение (достоверность 2) [C22C46AD] (AR v1)
Копирование... OK
Трек 13
Имя файла R:\Раздача 40\Melvin Sparks - 1995 - Texas Twister (1973) - '75 (1975)\13 Bump & Stomp.wav
Пиковый уровень 99.6 %
Скорость извлечения 8.8 X
Качество трека 100.0 %
CRC теста E55AC590
CRC копии E55AC590
Точное извлечение (достоверность 2) [5251C5AA] (AR v1)
Копирование... OK
Трек 14
Имя файла R:\Раздача 40\Melvin Sparks - 1995 - Texas Twister (1973) - '75 (1975)\14 In The Morning.wav
Пиковый уровень 99.6 %
Скорость извлечения 9.1 X
Качество трека 100.0 %
CRC теста BB4A88F9
CRC копии BB4A88F9
Точное извлечение (достоверность 2) [1DD23C27] (AR v1)
Копирование... OK
Трек 15
Имя файла R:\Раздача 40\Melvin Sparks - 1995 - Texas Twister (1973) - '75 (1975)\15 If You Want My Love (feat. Jimmy Scott On Vocal).wav
Пиковый уровень 99.6 %
Скорость извлечения 9.2 X
Качество трека 100.0 %
CRC теста E2380A51
CRC копии E2380A51
Точное извлечение (достоверность 2) [973621CF] (AR v1)
Копирование... OK
Все треки извлечены точно
Ошибок не произошло
Конец отчёта
==== Контрольная сумма отчёта 359847CFA609073A633AB25ADF6BE49AC91CD3DBEB024AAD9D20CF7ED18DFFEA ====
 
Содержание индексной карты (.CUE)
REM GENRE Funk
REM DATE 1995
REM DISCID C20F8B0F
REM COMMENT "ExactAudioCopy v1.0b3"
PERFORMER "Melvin Sparks"
TITLE "Texas Twister + '75"
FILE "01 Whip! Whop!.wav" WAVE
TRACK 01 AUDIO
TITLE "Whip! Whop!"
PERFORMER "Melvin Sparks"
ISRC 000000000000
PREGAP 00:00:32
INDEX 01 00:00:00
FILE "02 Gathering Together.wav" WAVE
TRACK 02 AUDIO
TITLE "Gathering Together"
PERFORMER "Melvin Sparks"
ISRC 000000000000
INDEX 01 00:00:00
FILE "03 Judy's Groove.wav" WAVE
TRACK 03 AUDIO
TITLE "Judy's Groove"
PERFORMER "Melvin Sparks"
ISRC 000000000000
INDEX 01 00:00:00
FILE "04 Texas Twister.wav" WAVE
TRACK 04 AUDIO
TITLE "Texas Twister"
PERFORMER "Melvin Sparks"
ISRC 000000000000
INDEX 01 00:00:00
FILE "05 Ain't No Woman (Like The One I Got).wav" WAVE
TRACK 05 AUDIO
TITLE "Ain't No Woman (Like The One I Got)"
PERFORMER "Melvin Sparks"
ISRC 000000000000
INDEX 01 00:00:00
FILE "06 I Want To Talk About You.wav" WAVE
TRACK 06 AUDIO
TITLE "I Want To Talk About You"
PERFORMER "Melvin Sparks"
ISRC 000000000000
INDEX 01 00:00:00
FILE "07 Star In The Crescent.wav" WAVE
TRACK 07 AUDIO
TITLE "Star In The Crescent"
PERFORMER "Melvin Sparks"
ISRC 000000000000
INDEX 01 00:00:00
FILE "08 I've Got To Have You (feat. Jimmy Scott On Vocal).wav" WAVE
TRACK 08 AUDIO
TITLE "I've Got To Have You (feat. Jimmy Scott On Vocal)"
PERFORMER "Melvin Sparks"
ISRC 000000000000
INDEX 01 00:00:00
FILE "09 Mockingbird.wav" WAVE
TRACK 09 AUDIO
TITLE "Mockingbird"
PERFORMER "Melvin Sparks"
ISRC 000000000000
INDEX 01 00:00:00
FILE "10 Looking For A Love.wav" WAVE
TRACK 10 AUDIO
TITLE "Looking For A Love"
PERFORMER "Melvin Sparks"
ISRC 000000000000
INDEX 01 00:00:00
FILE "11 Get Ya Some.wav" WAVE
TRACK 11 AUDIO
TITLE "Get Ya Some"
PERFORMER "Melvin Sparks"
ISRC 000000000000
INDEX 01 00:00:00
FILE "12 Get Down With The Get Down.wav" WAVE
TRACK 12 AUDIO
TITLE "Get Down With The Get Down"
PERFORMER "Melvin Sparks"
ISRC 000000000000
INDEX 01 00:00:00
FILE "13 Bump & Stomp.wav" WAVE
TRACK 13 AUDIO
TITLE "Bump & Stomp"
PERFORMER "Melvin Sparks"
ISRC 000000000000
INDEX 01 00:00:00
FILE "14 In The Morning.wav" WAVE
TRACK 14 AUDIO
TITLE "In The Morning"
PERFORMER "Melvin Sparks"
ISRC 000000000000
INDEX 01 00:00:00
FILE "15 If You Want My Love (feat. Jimmy Scott On Vocal).wav" WAVE
TRACK 15 AUDIO
TITLE "If You Want My Love (feat. Jimmy Scott On Vocal)"
PERFORMER "Melvin Sparks"
ISRC 000000000000
INDEX 01 00:00:00
Приватный:
Нет (DHT включён)
Размер:
428.80 Мб (449,626,667 байт) » файлов: 24
Участники:
0 раздают, 0 качают (0 участников всего)
Внешние участники:
2 раздают, 1 качают (3 участников всего) [ Обновить ]
No seeders - write a personal message to user M0p94ok. Нет сидеров - пишите личное сообщение пользователю M0p94ok.
04:34
125
Нет комментариев. Ваш будет первым!