Поиск

(Funk, Soul, disco, pop) [CD] Commodores - With Love From... Commodores - 2015, APE (image+.cue), lossless

(Funk, Soul, disco, pop) [CD] Commodores - With Love From... Commodores - 2015, APE (image+.cue), lossless
Треклист:
Commodores / With Love From... Commodores
Жанр: Funk, Soul, disco, pop
Носитель: CD
Страна-производитель диска (релиза): EU
Год издания: 2015
Издатель (лейбл): Spectrum Music
Номер по каталогу: SPEC2197
Страна исполнителя (группы): USA
Аудиокодек: APE (*.ape)
Тип рипа: image+.cue
Битрейт аудио: lossless
Продолжительность: 01:16:07
Источник (релизер): London
Наличие сканов в содержимом раздачи: да
Треклист:
01. Easy 1977
02. Three Times A Lady 1978
03. Say Yeah 1978
04. Girl, I Think The World About You 1976
05. Lay Back 1985
06. High On Sunshine 1976
07. Are You Happy1973
08. Painted Picture 1982
09. Heroes 1980
10. Lovin You 1979
11. This Love 1981
12. Lucy 1981
13. Visions 1978
14. Jesus In Love 1980
15. This Is Your Life 1975
 
Лог создания рипа
Exact Audio Copy V0.99 prebeta 5 from 4. May 2009
EAC extraction logfile from 24. January 2015, 10:00
Commodores / With Love From... Commodores
Used drive : hp CDDVDW SH-216BB Adapter: 0 ID: 0
Read mode : Secure
Utilize accurate stream : Yes
Defeat audio cache : Yes
Make use of C2 pointers : No
Read offset correction : 6
Overread into Lead-In and Lead-Out : No
Fill up missing offset samples with silence : Yes
Delete leading and trailing silent blocks : No
Null samples used in CRC calculations : Yes
Used interface : Native Win32 interface for Win NT & 2000
Used output format : Monkey's Audio Lossless Encoder
Selected bitrate : High Lossless Compression
Quality : High
Add ID3 tag : No
Command line compressor : C:\Program Files (x86)\Monkey's Audio\MAC.exe
Additional command line options : -v
TOC of the extracted CD
Track | Start | Length | Start sector | End sector
---------------------------------------------------------
1 | 0:00.00 | 4:16.13 | 0 | 19212
2 | 4:16.13 | 6:40.18 | 19213 | 49230
3 | 10:56.31 | 5:42.32 | 49231 | 74912
4 | 16:38.63 | 4:26.05 | 74913 | 94867
5 | 21:04.68 | 5:02.29 | 94868 | 117546
6 | 26:07.22 | 4:22.69 | 117547 | 137265
7 | 30:30.16 | 3:06.45 | 137266 | 151260
8 | 33:36.61 | 4:56.34 | 151261 | 173494
9 | 38:33.20 | 5:26.44 | 173495 | 197988
10 | 43:59.64 | 4:10.11 | 197989 | 216749
11 | 48:10.00 | 5:15.33 | 216750 | 240407
12 | 53:25.33 | 4:56.48 | 240408 | 262655
13 | 58:22.06 | 5:44.29 | 262656 | 288484
14 | 64:06.35 | 6:06.32 | 288485 | 315966
15 | 70:12.67 | 5:54.34 | 315967 | 342550
Range status and errors
Selected range
Filename C:\Users\Arthur\Desktop\Commodores - With Love From... Commodores.wav
Peak level 99.8 %
Range quality 100.0 %
Test CRC E605C1E3
Copy CRC E605C1E3
Copy OK
No errors occurred
AccurateRip summary
Track 1 not present in database
Track 2 not present in database
Track 3 not present in database
Track 4 not present in database
Track 5 not present in database
Track 6 not present in database
Track 7 not present in database
Track 8 not present in database
Track 9 not present in database
Track 10 not present in database
Track 11 not present in database
Track 12 not present in database
Track 13 not present in database
Track 14 not present in database
Track 15 not present in database
None of the tracks are present in the AccurateRip database
End of status report
 
Содержание индексной карты (.CUE)
REM GENRE R&B
REM DATE 2015
REM DISCID C911D70F
REM COMMENT "ExactAudioCopy v0.99pb5"
PERFORMER "Commodores"
TITLE "With Love From... Commodores"
FILE "Commodores - With Love From... Commodores.ape" WAVE
TRACK 01 AUDIO
TITLE "Easy"
PERFORMER "Commodores"
INDEX 01 00:00:00
TRACK 02 AUDIO
TITLE "Three Times A Lady"
PERFORMER "Commodores"
INDEX 00 04:15:71
INDEX 01 04:16:13
TRACK 03 AUDIO
TITLE "Say Yeah"
PERFORMER "Commodores"
INDEX 00 10:55:66
INDEX 01 10:56:31
TRACK 04 AUDIO
TITLE "Girl, I Think The World About You"
PERFORMER "Commodores"
INDEX 00 16:38:44
INDEX 01 16:38:63
TRACK 05 AUDIO
TITLE "Lay Back"
PERFORMER "Commodores"
INDEX 00 21:04:34
INDEX 01 21:04:68
TRACK 06 AUDIO
TITLE "High On Sunshine"
PERFORMER "Commodores"
INDEX 00 26:07:09
INDEX 01 26:07:22
TRACK 07 AUDIO
TITLE "Are You Happy"
PERFORMER "Commodores"
INDEX 00 30:29:37
INDEX 01 30:30:16
TRACK 08 AUDIO
TITLE "Painted Picture"
PERFORMER "Commodores"
INDEX 00 33:36:33
INDEX 01 33:36:61
TRACK 09 AUDIO
TITLE "Heroes"
PERFORMER "Commodores"
INDEX 00 38:32:51
INDEX 01 38:33:20
TRACK 10 AUDIO
TITLE "Lovin You"
PERFORMER "Commodores"
INDEX 00 43:58:56
INDEX 01 43:59:64
TRACK 11 AUDIO
TITLE "This Love"
PERFORMER "Commodores"
INDEX 00 48:09:38
INDEX 01 48:10:00
TRACK 12 AUDIO
TITLE "Lucy"
PERFORMER "Commodores"
INDEX 00 53:24:31
INDEX 01 53:25:33
TRACK 13 AUDIO
TITLE "Visions"
PERFORMER "Commodores"
INDEX 00 58:20:49
INDEX 01 58:22:06
TRACK 14 AUDIO
TITLE "Jesus Is Love"
PERFORMER "Commodores"
INDEX 00 64:04:70
INDEX 01 64:06:35
TRACK 15 AUDIO
TITLE "This Is Your Life"
PERFORMER "Commodores"
INDEX 00 70:12:24
INDEX 01 70:12:67
 
Лог проверки качества
AUDIOCHECKER v2.0 beta (build 457) - by Dester - opdester@freemail.hu
~~~~~~~~~~~~~~~~~~~~~~~~~~~~~~~~~~
Начато: понедельник, 09. 03. 2015. - 13:00.11
Найдено файлов: 1
1 -===- D:\Commodores With Love\Commodores - With Love From... Commodores.ape
Извлечение успешно выполнено
Заключение: этот трек - CDDA с вероятностью 100%
Временный файл удалён.
Завершено: понедельник, 09. 03. 2015. - 13:09.57 (Время операции: 0:09.46)
Приватный:
Нет (DHT включён)
Размер:
442.27 Мб (463,750,837 байт) » файлов: 11
Участники:
0 раздают, 0 качают (0 участников всего)
Внешние участники:
--- [ Обновить ]
No seeders - write a personal message to user M0p94ok. Нет сидеров - пишите личное сообщение пользователю M0p94ok.
04:34
107
Нет комментариев. Ваш будет первым!