Поиск

(Soul) [CD] Homi & Jarvis - Friend of a Friend - 1983 (2014 Japan Edition), FLAC (tracks+.cue), lossless

(Soul) [CD] Homi & Jarvis - Friend of a Friend - 1983 (2014 Japan Edition), FLAC (tracks+.cue), lossless
Треклист:
Homi & Jarvis - Friend of a Friend
Жанр: Soul
Носитель: CD
Страна-производитель диска (релиза): Япония
Год издания: 1983 (2014)
Издатель (лейбл): GRP/Universal
Номер по каталогу: UCCV-9565
Страна исполнителя (группы): США
Аудиокодек: FLAC (*.flac)
Тип рипа: tracks+.cue
Битрейт аудио: lossless
Продолжительность: 44:39
Источник (релизер): coron (what)
Наличие сканов в содержимом раздачи: нет
Треклист:
01. I'm in Love Again (5:12)
02. Friend of a Friend (4:04)
03. I Told You So (4:35)
04. You Got Me Fallin' (4:34)
05. Believe in Yourself (4:31)
06. If You See Him (4:30)
07. It Didn't Work Out That Way (3:39)
08. Love's Taking Over (4:12)
09. Run That by Me (4:04)
10. Some Hearts (5:18)
 
Лог создания рипа
Exact Audio Copy V1.0 beta 3 from 29. August 2011
EAC extraction logfile from 28. February 2015, 3:01
Homi & Jarvis / Friend Of A Friend (2014 Remastered)
Used drive : PIONEER BD-RW BDR-XD05 Adapter: 2 ID: 0
Read mode : Secure
Utilize accurate stream : Yes
Defeat audio cache : Yes
Make use of C2 pointers : No
Read offset correction : 667
Overread into Lead-In and Lead-Out : No
Fill up missing offset samples with silence : Yes
Delete leading and trailing silent blocks : No
Null samples used in CRC calculations : Yes
Used interface : Native Win32 interface for Win NT & 2000
Gap handling : Appended to previous track
Used output format : User Defined Encoder
Selected bitrate : 1024 kBit/s
Quality : High
Add ID3 tag : No
Command line compressor : C:\Program Files (x86)\Exact Audio Copy\Flac\flac.exe
Additional command line options : -8 -V -T "ARTIST=%artist%" -T "TITLE=%title%" -T "ALBUM=%albumtitle%" -T "DATE=%year%" -T "TRACKNUMBER=%tracknr%" -T "GENRE=%genre%" -T "PERFORMER=%albuminterpret%" -T "COMPOSER=%composer%" %haslyrics%--tag-from-file=LYRICS="%lyricsfile%"%haslyrics% -T "ALBUMARTIST=%albumartist%" -T "DISCNUMBER=%cdnumber%" -T "TOTALDISCS=%totalcds%" -T "TOTALTRACKS=%numtracks%" -T "COMMENT=%comment%" %source% -o %dest%
TOC of the extracted CD
Track | Start | Length | Start sector | End sector
---------------------------------------------------------
1 | 0:00.00 | 5:12.25 | 0 | 23424
2 | 5:12.25 | 4:04.13 | 23425 | 41737
3 | 9:16.38 | 4:34.55 | 41738 | 62342
4 | 13:51.18 | 4:33.45 | 62343 | 82862
5 | 18:24.63 | 4:31.10 | 82863 | 103197
6 | 22:55.73 | 4:29.57 | 103198 | 123429
7 | 27:25.55 | 3:38.48 | 123430 | 139827
8 | 31:04.28 | 4:12.17 | 139828 | 158744
9 | 35:16.45 | 4:03.68 | 158745 | 177037
10 | 39:20.38 | 5:18.30 | 177038 | 200917
Track 1
Filename C:\EACRips\01 I'm in Love Again.wav
Pre-gap length 0:00:02.00
Peak level 100.0 %
Extraction speed 2.9 X
Track quality 100.0 %
Test CRC AA42D089
Copy CRC AA42D089
Track not present in AccurateRip database
Copy OK
Track 2
Filename C:\EACRips\02 Friend of a Friend.wav
Peak level 100.0 %
Extraction speed 3.2 X
Track quality 100.0 %
Test CRC D7832F86
Copy CRC D7832F86
Track not present in AccurateRip database
Copy OK
Track 3
Filename C:\EACRips\03 I Told You So.wav
Peak level 100.0 %
Extraction speed 3.5 X
Track quality 100.0 %
Test CRC C671A87F
Copy CRC C671A87F
Track not present in AccurateRip database
Copy OK
Track 4
Filename C:\EACRips\04 You Got Me Fallin'.wav
Pre-gap length 0:00:00.42
Peak level 100.0 %
Extraction speed 3.8 X
Track quality 100.0 %
Test CRC F0509228
Copy CRC F0509228
Track not present in AccurateRip database
Copy OK
Track 5
Filename C:\EACRips\05 Believe in Yourself.wav
Pre-gap length 0:00:01.69
Peak level 96.2 %
Extraction speed 4.0 X
Track quality 100.0 %
Test CRC AF5ABBA2
Copy CRC AF5ABBA2
Track not present in AccurateRip database
Copy OK
Track 6
Filename C:\EACRips\06 If You See Him.wav
Pre-gap length 0:00:00.16
Peak level 100.0 %
Extraction speed 4.3 X
Track quality 100.0 %
Test CRC A126D05D
Copy CRC A126D05D
Track not present in AccurateRip database
Copy OK
Track 7
Filename C:\EACRips\07 It Didn't Work Out That Way.wav
Peak level 93.0 %
Extraction speed 4.3 X
Track quality 100.0 %
Test CRC 13F8EA7A
Copy CRC 13F8EA7A
Track not present in AccurateRip database
Copy OK
Track 8
Filename C:\EACRips\08 Love's Taking Over.wav
Peak level 100.0 %
Extraction speed 4.6 X
Track quality 100.0 %
Test CRC 23B63D7C
Copy CRC 23B63D7C
Track not present in AccurateRip database
Copy OK
Track 9
Filename C:\EACRips\09 Run That By Me.wav
Pre-gap length 0:00:00.25
Peak level 100.0 %
Extraction speed 4.7 X
Track quality 100.0 %
Test CRC C4764AE6
Copy CRC C4764AE6
Track not present in AccurateRip database
Copy OK
Track 10
Filename C:\EACRips\10 Some Hearts.wav
Peak level 88.3 %
Extraction speed 4.6 X
Track quality 99.9 %
Test CRC 61A987C5
Copy CRC 61A987C5
Track not present in AccurateRip database
Copy OK
None of the tracks are present in the AccurateRip database
No errors occurred
End of status report
---- CUETools DB Plugin V2.1.3
[CTDB TOCID: _A22nPy22zF7LkmN42agBXFnJlE-] disk not present in database, Submit result: _A22nPy22zF7LkmN42agBXFnJlE- has been uploaded
==== Log checksum E5490031616A9DD99D294A6D25FCB5DF0D43BF670A4BF186D49E9B7720A6EBBC ====
 
Содержание индексной карты (.CUE)
REM GENRE Jazz
REM DATE 1983
REM DISCID 840A760A
REM COMMENT "ExactAudioCopy v1.0b3"
PERFORMER "Homi & Jarvis"
TITLE "Friend of a Friend"
FILE "01 - I'm in Love Again.wav" WAVE
TRACK 01 AUDIO
TITLE "I'm in Love Again"
PERFORMER "Homi & Jarvis"
INDEX 01 00:00:00
FILE "02 - Friend of a Friend.wav" WAVE
TRACK 02 AUDIO
TITLE "Friend of a Friend"
PERFORMER "Homi & Jarvis"
INDEX 01 00:00:00
FILE "03 - I Told You So.wav" WAVE
TRACK 03 AUDIO
TITLE "I Told You So"
PERFORMER "Homi & Jarvis"
INDEX 01 00:00:00
TRACK 04 AUDIO
TITLE "You Got Me Fallin'"
PERFORMER "Homi & Jarvis"
INDEX 00 04:34:23
FILE "04 - You Got Me Fallin'.wav" WAVE
INDEX 01 00:00:00
TRACK 05 AUDIO
TITLE "Believe in Yourself"
PERFORMER "Homi & Jarvis"
INDEX 00 04:31:68
FILE "05 - Believe in Yourself.wav" WAVE
INDEX 01 00:00:00
TRACK 06 AUDIO
TITLE "If You See Him"
PERFORMER "Homi & Jarvis"
INDEX 00 04:30:73
FILE "06 - If You See Him.wav" WAVE
INDEX 01 00:00:00
FILE "07 - It Didn't Work Out That Way.wav" WAVE
TRACK 07 AUDIO
TITLE "It Didn't Work Out That Way"
PERFORMER "Homi & Jarvis"
INDEX 01 00:00:00
FILE "08 - Love's Taking Over.wav" WAVE
TRACK 08 AUDIO
TITLE "Love's Taking Over"
PERFORMER "Homi & Jarvis"
INDEX 01 00:00:00
TRACK 09 AUDIO
TITLE "Run That by Me"
PERFORMER "Homi & Jarvis"
INDEX 00 04:11:73
FILE "09 - Run That by Me.wav" WAVE
INDEX 01 00:00:00
FILE "10 - Some Hearts.wav" WAVE
TRACK 10 AUDIO
TITLE "Some Hearts"
PERFORMER "Homi & Jarvis"
INDEX 01 00:00:00
 
Отчет CUETools
[CUETools log; Date: 06.03.2015 1:30:11; Version: 2.1.5]
[CTDB TOCID: _A22nPy22zF7LkmN42agBXFnJlE-] found.
Track | CTDB Status
1 | (1/1) Accurately ripped
2 | (1/1) Accurately ripped
3 | (1/1) Accurately ripped
4 | (1/1) Accurately ripped
5 | (1/1) Accurately ripped
6 | (1/1) Accurately ripped
7 | (1/1) Accurately ripped
8 | (1/1) Accurately ripped
9 | (1/1) Accurately ripped
10 | (1/1) Accurately ripped
[AccurateRip ID: 0010fdb6-0086fda5-840a760a] disk not present in database.
Track Peak [ CRC32 ] [W/O NULL] [ LOG ]
-- 100,0 [84A050E5] [E876A516]
01 100,0 [AA42D089] [87BE3C1E] CRC32
02 100,0 [D7832F86] [8FE9D90A] CRC32
03 100,0 [C671A87F] [07A3C84B] CRC32
04 100,0 [F0509228] [69208A8B] CRC32
05 96,2 [AF5ABBA2] [BD386E53] CRC32
06 100,0 [A126D05D] [A752AB9C] CRC32
07 93,0 [13F8EA7A] [23FC4E21] CRC32
08 100,0 [23B63D7C] [2AD2F328] CRC32
09 100,0 [C4764AE6] [CE0E0E9F] CRC32
10 88,3 [61A987C5] [3A4579D4] CRC32
Приватный:
Нет (DHT включён)
Размер:
262.92 Мб (275,688,239 байт) » файлов: 17
Участники:
0 раздают, 1 качают (1 участников всего)
Внешние участники:
3 раздают, 1 качают (4 участников всего) [ Обновить ]
Скорость:
203.34 Кб/c 0/c
Есть вопросы - пишите личное сообщение пользователю M0p94ok.
04:33
77
Нет комментариев. Ваш будет первым!