Поиск

(Jazz-Funk, Fusion) [CD] Funk Factory - Funk Factory - 1975 (2013), FLAC (tracks+.cue), lossless

(Jazz-Funk, Fusion) [CD] Funk Factory - Funk Factory - 1975 (2013), FLAC (tracks+.cue), lossless
Треклист:
Funk Factory - Funk Factory
Жанр: Jazz-Funk, Fusion
Носитель: CD
Страна-производитель диска (релиза): EU/Япония
Год издания: 1975 (2013)
Издатель (лейбл): Atco/Atlantic/WEA/Warner
Номер по каталогу: 8122-79611-6
Страна исполнителя (группы): США
Аудиокодек: FLAC (*.flac)
Тип рипа: tracks+.cue
Битрейт аудио: lossless
Продолжительность: 40:24
Источник (релизер): ordo
Наличие сканов в содержимом раздачи: да
Треклист:
01. Watusi Dance (Gulgowski) - 4:38
02. Horsing Around (Topola-Simon) - 3:58
03. Rien Ne Va Plus (Kafka) - 5:17
04. After the World Goes Home (Urbaniak-Simon) - 5:06
05. Next Please (Kafka) - 3:13
06. The Music in Me (Kafka-Logan) - 4:08
07. Funk It (Urbaniak) - 3:44
08. Lilliput (Gulgowski) - 5:25
09. Sinkin' Low (Kafka) - 4:55
 
Лог создания рипа
X Lossless Decoder version 20141129 (148.1)
XLD extraction logfile from 2015-03-02 00:07:14 +0200
Funk Factory / Funk Factory
Used drive : TSSTcorp CDDVDW SE-B18AB (revision TS00)
Media type : Pressed CD
Ripper mode : XLD Secure Ripper
Disable audio cache : OK for the drive with a cache less than 1375KiB
Make use of C2 pointers : NO
Read offset correction : 6
Max retry count : 20
Gap status : Analyzed, Appended (except HTOA)
TOC of the extracted CD
Track | Start | Length | Start sector | End sector
---------------------------------------------------------
1 | 00:00:00 | 04:38:18 | 0 | 20867
2 | 04:38:18 | 03:58:02 | 20868 | 38719
3 | 08:36:20 | 05:16:73 | 38720 | 62492
4 | 13:53:18 | 05:06:23 | 62493 | 85465
5 | 18:59:41 | 03:12:39 | 85466 | 99904
6 | 22:12:05 | 04:07:48 | 99905 | 118477
7 | 26:19:53 | 03:44:31 | 118478 | 135308
8 | 30:04:09 | 05:25:15 | 135309 | 159698
9 | 35:29:24 | 04:54:63 | 159699 | 181811
AccurateRip Summary (DiscID: 000dc65e-0064bc82-61097809)
Track 01 : OK (v2, confidence 3/3)
Track 02 : OK (v2, confidence 3/3)
Track 03 : OK (v2, confidence 3/3)
Track 04 : OK (v2, confidence 3/3)
Track 05 : OK (v2, confidence 3/3)
Track 06 : OK (v2, confidence 3/3)
Track 07 : OK (v2, confidence 3/3)
Track 08 : OK (v2, confidence 3/3)
Track 09 : OK (v2, confidence 3/3)
->All tracks accurately ripped.
All Tracks
Album gain : -8.32 dB
Peak : 1.000000
Statistics
Read error : 0
Jitter error (maybe fixed) : 0
Retry sector count : 0
Damaged sector count : 0
Track 01
Filename : /Volumes/Bolt/XLD rip/Funk Factory - Funk Factory (1975) [FLAC]/01 Watusi Dance.flac
Pre-gap length : 00:02:00
Track gain : -7.25 dB
Peak : 1.000000
CRC32 hash (test run) : 91DE4CC7
CRC32 hash : 91DE4CC7
CRC32 hash (skip zero) : F053107A
AccurateRip v1 signature : D97BD653
AccurateRip v2 signature : EBAC7800
->Accurately ripped (v2, confidence 3/3)
Statistics
Read error : 0
Jitter error (maybe fixed) : 0
Retry sector count : 0
Damaged sector count : 0
Track 02
Filename : /Volumes/Bolt/XLD rip/Funk Factory - Funk Factory (1975) [FLAC]/02 Horsing Around.flac
Pre-gap length : 00:01:13
Track gain : -8.84 dB
Peak : 1.000000
CRC32 hash (test run) : 4A86B181
CRC32 hash : 4A86B181
CRC32 hash (skip zero) : 95A06473
AccurateRip v1 signature : B0E47020
AccurateRip v2 signature : A2D6D11A
->Accurately ripped (v2, confidence 3/3)
Statistics
Read error : 0
Jitter error (maybe fixed) : 0
Retry sector count : 0
Damaged sector count : 0
Track 03
Filename : /Volumes/Bolt/XLD rip/Funk Factory - Funk Factory (1975) [FLAC]/03 Rien Ne Va Plus.flac
Pre-gap length : 00:01:08
Track gain : -8.74 dB
Peak : 1.000000
CRC32 hash (test run) : D2411674
CRC32 hash : D2411674
CRC32 hash (skip zero) : 44FF389B
AccurateRip v1 signature : F0A24F46
AccurateRip v2 signature : DD6F0E88
->Accurately ripped (v2, confidence 3/3)
Statistics
Read error : 0
Jitter error (maybe fixed) : 0
Retry sector count : 0
Damaged sector count : 0
Track 04
Filename : /Volumes/Bolt/XLD rip/Funk Factory - Funk Factory (1975) [FLAC]/04 After The World Goes Home.flac
Pre-gap length : 00:01:16
Track gain : -8.37 dB
Peak : 1.000000
CRC32 hash (test run) : F2E4CF78
CRC32 hash : F2E4CF78
CRC32 hash (skip zero) : 1ECF9074
AccurateRip v1 signature : CF685E22
AccurateRip v2 signature : 6FC53FB9
->Accurately ripped (v2, confidence 3/3)
Statistics
Read error : 0
Jitter error (maybe fixed) : 0
Retry sector count : 0
Damaged sector count : 0
Track 05
Filename : /Volumes/Bolt/XLD rip/Funk Factory - Funk Factory (1975) [FLAC]/05 Next Please.flac
Pre-gap length : 00:01:29
Track gain : -9.64 dB
Peak : 1.000000
CRC32 hash (test run) : B20EE795
CRC32 hash : B20EE795
CRC32 hash (skip zero) : AF9F4BF8
AccurateRip v1 signature : 456927C1
AccurateRip v2 signature : C4DFC7D9
->Accurately ripped (v2, confidence 3/3)
Statistics
Read error : 0
Jitter error (maybe fixed) : 0
Retry sector count : 0
Damaged sector count : 0
Track 06
Filename : /Volumes/Bolt/XLD rip/Funk Factory - Funk Factory (1975) [FLAC]/06 The Music In Me.flac
Pre-gap length : 00:01:14
Track gain : -8.08 dB
Peak : 1.000000
CRC32 hash (test run) : B7B473C8
CRC32 hash : B7B473C8
CRC32 hash (skip zero) : 07E88875
AccurateRip v1 signature : E9A64931
AccurateRip v2 signature : 70BB3AA7
->Accurately ripped (v2, confidence 3/3)
Statistics
Read error : 0
Jitter error (maybe fixed) : 0
Retry sector count : 0
Damaged sector count : 0
Track 07
Filename : /Volumes/Bolt/XLD rip/Funk Factory - Funk Factory (1975) [FLAC]/07 Funk It.flac
Pre-gap length : 00:01:36
Track gain : -7.81 dB
Peak : 1.000000
CRC32 hash (test run) : 9555E0DB
CRC32 hash : 9555E0DB
CRC32 hash (skip zero) : 0C7C902D
AccurateRip v1 signature : 7338A3C0
AccurateRip v2 signature : 4CFEBC59
->Accurately ripped (v2, confidence 3/3)
Statistics
Read error : 0
Jitter error (maybe fixed) : 0
Retry sector count : 0
Damaged sector count : 0
Track 08
Filename : /Volumes/Bolt/XLD rip/Funk Factory - Funk Factory (1975) [FLAC]/08 Lilliput.flac
Pre-gap length : 00:01:06
Track gain : -6.81 dB
Peak : 1.000000
CRC32 hash (test run) : 024BE57C
CRC32 hash : 024BE57C
CRC32 hash (skip zero) : F1A07CFF
AccurateRip v1 signature : AF06AC10
AccurateRip v2 signature : 194576AA
->Accurately ripped (v2, confidence 3/3)
Statistics
Read error : 0
Jitter error (maybe fixed) : 0
Retry sector count : 0
Damaged sector count : 0
Track 09
Filename : /Volumes/Bolt/XLD rip/Funk Factory - Funk Factory (1975) [FLAC]/09 Sinkin' Low.flac
Pre-gap length : 00:01:42
Track gain : -7.75 dB
Peak : 1.000000
CRC32 hash (test run) : 9D620F3B
CRC32 hash : 9D620F3B
CRC32 hash (skip zero) : AC21570B
AccurateRip v1 signature : 7C6D4BE1
AccurateRip v2 signature : 86DAEC01
->Accurately ripped (v2, confidence 3/3)
Statistics
Read error : 0
Jitter error (maybe fixed) : 0
Retry sector count : 0
Damaged sector count : 0
No errors occurred
End of status report
-----BEGIN XLD SIGNATURE-----
haf2u0GPX93KLUJEV7be5CyXp1BjYZ0PVaMFh_BQJw9gSxkWl2a_Mwz67_gVE_4uwmNJfuMY2HUuz5y.tpB342fhr2w.XI8.3Jz9Qta
-----END XLD SIGNATURE-----
 
Содержание индексной карты (.CUE)
TITLE "Funk Factory"
PERFORMER "Funk Factory"
CATALOG 4943674137084
REM GENRE "Jazz"
REM DATE "1975"
REM DISCID 61097809
REM REPLAYGAIN_ALBUM_GAIN -8.32 dB
REM REPLAYGAIN_ALBUM_PEAK 1.000000
REM COMPILATION TRUE
FILE "01 - Watusi Dance.flac" WAVE
TRACK 01 AUDIO
TITLE "Watusi Dance"
REM REPLAYGAIN_TRACK_GAIN -7.25 dB
REM REPLAYGAIN_TRACK_PEAK 1.000000
INDEX 01 00:00:00
TRACK 02 AUDIO
TITLE "Horsing Around"
REM REPLAYGAIN_TRACK_GAIN -8.84 dB
REM REPLAYGAIN_TRACK_PEAK 1.000000
INDEX 00 04:37:05
FILE "02 - Horsing Around.flac" WAVE
INDEX 01 00:00:00
TRACK 03 AUDIO
TITLE "Rien Ne Va Plus"
REM REPLAYGAIN_TRACK_GAIN -8.74 dB
REM REPLAYGAIN_TRACK_PEAK 1.000000
INDEX 00 03:56:69
FILE "03 - Rien Ne Va Plus.flac" WAVE
INDEX 01 00:00:00
TRACK 04 AUDIO
TITLE "After the World Goes Home"
REM REPLAYGAIN_TRACK_GAIN -8.37 dB
REM REPLAYGAIN_TRACK_PEAK 1.000000
INDEX 00 05:15:57
FILE "04 - After the World Goes Home.flac" WAVE
INDEX 01 00:00:00
TRACK 05 AUDIO
TITLE "Next Please"
REM REPLAYGAIN_TRACK_GAIN -9.64 dB
REM REPLAYGAIN_TRACK_PEAK 1.000000
INDEX 00 05:04:69
FILE "05 - Next Please.flac" WAVE
INDEX 01 00:00:00
TRACK 06 AUDIO
TITLE "The Music in Me"
REM REPLAYGAIN_TRACK_GAIN -8.08 dB
REM REPLAYGAIN_TRACK_PEAK 1.000000
INDEX 00 03:11:25
FILE "06 - The Music in Me.flac" WAVE
INDEX 01 00:00:00
TRACK 07 AUDIO
TITLE "Funk It"
REM REPLAYGAIN_TRACK_GAIN -7.81 dB
REM REPLAYGAIN_TRACK_PEAK 1.000000
INDEX 00 04:06:12
FILE "07 - Funk It.flac" WAVE
INDEX 01 00:00:00
TRACK 08 AUDIO
TITLE "Lilliput"
REM REPLAYGAIN_TRACK_GAIN -6.81 dB
REM REPLAYGAIN_TRACK_PEAK 1.000000
INDEX 00 03:43:25
FILE "08 - Lilliput.flac" WAVE
INDEX 01 00:00:00
TRACK 09 AUDIO
TITLE "Sinkin' Low"
REM REPLAYGAIN_TRACK_GAIN -7.75 dB
REM REPLAYGAIN_TRACK_PEAK 1.000000
INDEX 00 05:23:48
FILE "09 - Sinkin' Low.flac" WAVE
INDEX 01 00:00:00
 
Отчет CUETools
[CUETools log; Date: 05.03.2015 23:41:36; Version: 2.1.5]
[CTDB TOCID: J8z8YSB5UtYlmXKSheOVfDj_TsE-] found.
Track | CTDB Status
1 | (2/2) Accurately ripped
2 | (2/2) Accurately ripped
3 | (2/2) Accurately ripped
4 | (2/2) Accurately ripped
5 | (2/2) Accurately ripped
6 | (2/2) Accurately ripped
7 | (2/2) Accurately ripped
8 | (2/2) Accurately ripped
9 | (2/2) Accurately ripped
[AccurateRip ID: 000dc65e-0064bc82-61097809] found.
Track [ CRC | V2 ] Status
01 [d97bd653|ebac7800] (0+3/3) Accurately ripped
02 [b0e47020|a2d6d11a] (0+3/3) Accurately ripped
03 [f0a24f46|dd6f0e88] (0+3/3) Accurately ripped
04 [cf685e22|6fc53fb9] (0+3/3) Accurately ripped
05 [456927c1|c4dfc7d9] (0+3/3) Accurately ripped
06 [e9a64931|70bb3aa7] (0+3/3) Accurately ripped
07 [7338a3c0|4cfebc59] (0+3/3) Accurately ripped
08 [af06ac10|194576aa] (0+3/3) Accurately ripped
09 [7c6d4be1|86daec01] (0+3/3) Accurately ripped
Track Peak [ CRC32 ] [W/O NULL]
-- 100,0 [FD7F25EA] [7965D4EB]
01 100,0 [91DE4CC7] [F053107A]
02 100,0 [4A86B181] [95A06473]
03 100,0 [D2411674] [44FF389B]
04 100,0 [F2E4CF78] [1ECF9074]
05 100,0 [B20EE795] [AF9F4BF8]
06 100,0 [B7B473C8] [07E88875]
07 100,0 [9555E0DB] [0C7C902D]
08 100,0 [024BE57C] [F1A07CFF]
09 100,0 [9D620F3B] [AC21570B]
 
Об альбоме (сборнике)
A massive bit of funky fusion from the 70s – an album that was crucially overlooked at the time, but which has gone onto become a crate-diggers classic over the years! The group's fronted by Polish jazz legends Michal Urbaniak and Urszula Dudziak – but it also features a fair bit of American players too – all working together in a blend of the best funky fusion modes going down in both the US and Eastern Europe in the mid 70s! Drums on the set are totally great – played by Steve Gadd or Gerald Brown, depending on the track – and some tracks have weird vocal bits that riff around the instrumentation, sung either by Urszula, Bernard Kafka, or some other backing singers. The keyboards are great – quite tripped-out at times, but never too over the top – and overall, the album's a fair bit more soulful and funky than most of Urbaniak's other work of the 70s. Titles include the killer sample track "Rien Ne Va Plus" – used famously by the Beastie Boys many years back – plus "After The World Goes Home", "Funk It", "Sinkin Low", "Next Please", "Horsing Around", and "Watusi Dance".
 
Состав
Bernard Kafka (#1,3,5,7-9), Urszula Dudziak (#1-5,7-9), Irene Howard (#8) - voice
Barry Finnerty (#2,4-8), John Abercrombie (#9) - guitar
Michal Urbaniak - violin (#1,2,4,6,7,9), soprano saxophone (#1,7,8), tenor saxophone (#1,7)
Wlodek Gulgowski - keyboards
Anthony Jackson (#1-6,9), Tony Levin (#7,8) - bass
Steve Gadd (#1,3,7,8), Gerald Brown (#2,4-6,9) - drums
Urszula Dudziak - percussion (#2,4,5,7,8), synthesizer (#2,4)
BK Singers (#2-4,6) - Ann Tripp, Bernard Kafka, Bill Ruthenberg, Linda "Tequila" Logan
Recorded at Atlantic Recording Studios, New York.
Здесь - американское издание Wounded Bird WOU 166
Приватный:
Нет (DHT включён)
Размер:
279.94 Мб (293,541,277 байт) » файлов: 22
Участники:
0 раздают, 1 качают (1 участников всего)
Внешние участники:
2 раздают, 1 качают (3 участников всего) [ Обновить ]
Скорость:
208.48 Кб/c 0/c
No seeders - write a personal message to user M0p94ok. Нет сидеров - пишите личное сообщение пользователю M0p94ok.
04:32
449
Нет комментариев. Ваш будет первым!