Поиск

(Funk, Soul, R&B) [CD] Ray, Goodman & Brown - Take It To The Limit / Mood For Loving - 2014, FLAC (tracks+.cue), lossless

(Funk, Soul, R&B) [CD] Ray, Goodman & Brown - Take It To The Limit / Mood For Loving - 2014, FLAC (tracks+.cue), lossless
Треклист:
Ray, Goodman & Brown - Take It To The Limit (1986) / Mood For Loving (1988)
TWO CLASSIC ALBUMS ON ONE CD Жанр: Funk, Soul, R&B
Носитель: CD
Год издания: 2014
Издатель (лейбл): Expansion Records
Номер по каталогу: EXP2CD40
Аудиокодек: FLAC (*.flac)
Тип рипа: tracks+.cue
Битрейт аудио: lossless
Продолжительность: 01:18:10
Rip by JET 1
Наличие сканов в содержимом раздачи: да
Треклист:
Take It To The Limit (1986)
01. Take It To The Limit (4:48)
02. (Baby) Let's Make Love Tonight (5:18)
03. Good Love (3:52)
04. Celebrate Our Love (5:03)
05. Why Must I Wait (4:00)
06. Waiting For Dawn (4:59)
07. We've Got Tonight (5:42)
08. Someone's Missing Your Love (5:00)
Mood For Loving (1988)
09. Where Did You Get That Body, Baby? (4:54)
10. Mood For Lovin' (4:15)
11. Where Are You Now? (4:58)
12. Say It (5:07)
13. Electrified (4:35)
14. Next Time I'll Know (5:43)
15. Never Stop Lovin' You (5:02)
16. Don't Make Me Wait (4:54)
 
 
Лог создания рипа
Exact Audio Copy V1.0 beta 3 from 29. August 2011
EAC extraction logfile from 10. March 2015, 12:46
Ray Goodman & Brown / Take It To The Limit / Mood For Lovin'
Used drive : GENERIC CDRCB05 Adapter: 4 ID: 0
Read mode : Secure
Utilize accurate stream : Yes
Defeat audio cache : Yes
Make use of C2 pointers : No
Read offset correction : 102
Overread into Lead-In and Lead-Out : No
Fill up missing offset samples with silence : Yes
Delete leading and trailing silent blocks : No
Null samples used in CRC calculations : Yes
Used interface : Native Win32 interface for Win NT & 2000
Gap handling : Appended to previous track
Used output format : User Defined Encoder
Selected bitrate : 1024 kBit/s
Quality : High
Add ID3 tag : No
Command line compressor : C:\Program Files\FLAC\flac.exe
Additional command line options : -8 -V -T "ARTIST=%artist%" -T "TITLE=%title%" -T "ALBUM=%albumtitle%" -T "DATE=%year%" -T "TRACKNUMBER=%tracknr%" -T "GENRE=%genre%" -T "PERFORMER=%albuminterpret%" -T "COMPOSER=%composer%" %haslyrics%--tag-from-file=LYRICS="%lyricsfile%"%haslyrics% -T "ALBUMARTIST=%albumartist%" -T "DISCNUMBER=%cdnumber%" -T "TOTALDISCS=%totalcds%" -T "TOTALTRACKS=%numtracks%" -T "COMMENT=%comment%" %source% -o %dest%
TOC of the extracted CD
Track | Start | Length | Start sector | End sector
---------------------------------------------------------
1 | 0:00.00 | 4:47.72 | 0 | 21596
2 | 4:47.72 | 5:18.35 | 21597 | 45481
3 | 10:06.32 | 3:51.41 | 45482 | 62847
4 | 13:57.73 | 5:02.51 | 62848 | 85548
5 | 19:00.49 | 3:59.42 | 85549 | 103515
6 | 23:00.16 | 4:59.26 | 103516 | 125966
7 | 27:59.42 | 5:41.56 | 125967 | 151597
8 | 33:41.23 | 5:00.36 | 151598 | 174133
9 | 38:41.59 | 4:53.71 | 174134 | 196179
10 | 43:35.55 | 4:14.38 | 196180 | 215267
11 | 47:50.18 | 4:58.29 | 215268 | 237646
12 | 52:48.47 | 5:06.65 | 237647 | 260661
13 | 57:55.37 | 4:35.27 | 260662 | 281313
14 | 62:30.64 | 5:43.03 | 281314 | 307041
15 | 68:13.67 | 5:01.60 | 307042 | 329676
16 | 73:15.52 | 4:54.14 | 329677 | 351740
Track 1
Filename I:\0\Ray, Goodman & Brown - Take It To The Limit • Mood For Loving (2014)\01 - Take It To The Limit.wav
Pre-gap length 0:00:02.00
Peak level 97.7 %
Extraction speed 1.5 X
Track quality 100.0 %
Test CRC A3320756
Copy CRC A3320756
Accurately ripped (confidence 2) [CA5BCCDB] (AR v2)
Copy OK
Track 2
Filename I:\0\Ray, Goodman & Brown - Take It To The Limit • Mood For Loving (2014)\02 - (Baby) Let's Make Love Tonight.wav
Pre-gap length 0:00:00.26
Peak level 97.7 %
Extraction speed 1.7 X
Track quality 100.0 %
Test CRC 0C357F4A
Copy CRC 0C357F4A
Accurately ripped (confidence 2) [8BDD4A55] (AR v2)
Copy OK
Track 3
Filename I:\0\Ray, Goodman & Brown - Take It To The Limit • Mood For Loving (2014)\03 - Good Love.wav
Pre-gap length 0:00:00.49
Peak level 97.7 %
Extraction speed 1.7 X
Track quality 100.0 %
Test CRC A3F06896
Copy CRC A3F06896
Accurately ripped (confidence 2) [B4DD9938] (AR v2)
Copy OK
Track 4
Filename I:\0\Ray, Goodman & Brown - Take It To The Limit • Mood For Loving (2014)\04 - Celebrate Our Love.wav
Pre-gap length 0:00:01.03
Peak level 97.7 %
Extraction speed 1.9 X
Track quality 100.0 %
Test CRC 2D5CA099
Copy CRC 2D5CA099
Accurately ripped (confidence 2) [CAFF3D95] (AR v2)
Copy OK
Track 5
Filename I:\0\Ray, Goodman & Brown - Take It To The Limit • Mood For Loving (2014)\05 - Why Must I Wait.wav
Pre-gap length 0:00:00.05
Peak level 97.7 %
Extraction speed 2.0 X
Track quality 100.0 %
Test CRC E6D67808
Copy CRC E6D67808
Accurately ripped (confidence 2) [7B1E9A28] (AR v2)
Copy OK
Track 6
Filename I:\0\Ray, Goodman & Brown - Take It To The Limit • Mood For Loving (2014)\06 - Waiting For Dawn.wav
Peak level 97.7 %
Extraction speed 2.1 X
Track quality 100.0 %
Test CRC 5BA57806
Copy CRC 5BA57806
Accurately ripped (confidence 2) [FBF13E9A] (AR v2)
Copy OK
Track 7
Filename I:\0\Ray, Goodman & Brown - Take It To The Limit • Mood For Loving (2014)\07 - We've Got Tonight.wav
Pre-gap length 0:00:00.27
Peak level 97.7 %
Extraction speed 2.3 X
Track quality 100.0 %
Test CRC 3B3B4352
Copy CRC 3B3B4352
Accurately ripped (confidence 2) [9E80E1A7] (AR v2)
Copy OK
Track 8
Filename I:\0\Ray, Goodman & Brown - Take It To The Limit • Mood For Loving (2014)\08 - Someone's Missing Your Love.wav
Pre-gap length 0:00:00.25
Peak level 97.7 %
Extraction speed 2.4 X
Track quality 100.0 %
Test CRC 7D72B02B
Copy CRC 7D72B02B
Accurately ripped (confidence 2) [5A746A5D] (AR v2)
Copy OK
Track 9
Filename I:\0\Ray, Goodman & Brown - Take It To The Limit • Mood For Loving (2014)\09 - Where Did You Get That Body, Baby.wav
Pre-gap length 0:00:01.02
Peak level 97.5 %
Extraction speed 2.5 X
Track quality 100.0 %
Test CRC 1188EE79
Copy CRC 1188EE79
Accurately ripped (confidence 2) [9DB68A51] (AR v2)
Copy OK
Track 10
Filename I:\0\Ray, Goodman & Brown - Take It To The Limit • Mood For Loving (2014)\10 - Mood For Lovin'.wav
Pre-gap length 0:00:00.06
Peak level 97.7 %
Extraction speed 2.6 X
Track quality 100.0 %
Test CRC B256BBDE
Copy CRC B256BBDE
Accurately ripped (confidence 2) [F6206EF4] (AR v2)
Copy OK
Track 11
Filename I:\0\Ray, Goodman & Brown - Take It To The Limit • Mood For Loving (2014)\11 - Where Are You Now.wav
Pre-gap length 0:00:01.00
Peak level 97.4 %
Extraction speed 2.7 X
Track quality 100.0 %
Test CRC 0149D982
Copy CRC 0149D982
Accurately ripped (confidence 2) [BF253E3D] (AR v2)
Copy OK
Track 12
Filename I:\0\Ray, Goodman & Brown - Take It To The Limit • Mood For Loving (2014)\12 - Say It.wav
Pre-gap length 0:00:00.44
Peak level 97.4 %
Extraction speed 2.8 X
Track quality 100.0 %
Test CRC 634A24FE
Copy CRC 634A24FE
Accurately ripped (confidence 2) [4F6CFF15] (AR v2)
Copy OK
Track 13
Filename I:\0\Ray, Goodman & Brown - Take It To The Limit • Mood For Loving (2014)\13 - Electrified.wav
Pre-gap length 0:00:01.04
Peak level 97.7 %
Extraction speed 2.8 X
Track quality 100.0 %
Test CRC C5377184
Copy CRC C5377184
Accurately ripped (confidence 2) [9B024F70] (AR v2)
Copy OK
Track 14
Filename I:\0\Ray, Goodman & Brown - Take It To The Limit • Mood For Loving (2014)\14 - Next Time I'll Know.wav
Pre-gap length 0:00:00.57
Peak level 97.4 %
Extraction speed 3.0 X
Track quality 100.0 %
Test CRC 92910E82
Copy CRC 92910E82
Accurately ripped (confidence 2) [50BD9B2D] (AR v2)
Copy OK
Track 15
Filename I:\0\Ray, Goodman & Brown - Take It To The Limit • Mood For Loving (2014)\15 - Never Stop Lovin' You.wav
Pre-gap length 0:00:00.55
Peak level 97.7 %
Extraction speed 2.7 X
Track quality 99.9 %
Test CRC D01457C8
Copy CRC D01457C8
Accurately ripped (confidence 2) [770DCCDD] (AR v2)
Copy OK
Track 16
Filename I:\0\Ray, Goodman & Brown - Take It To The Limit • Mood For Loving (2014)\16 - Don't Make Me Wait.wav
Pre-gap length 0:00:00.17
Peak level 97.5 %
Extraction speed 3.1 X
Track quality 100.0 %
Test CRC E17ED251
Copy CRC E17ED251
Accurately ripped (confidence 2) [587BA53D] (AR v2)
Copy OK
All tracks accurately ripped
No errors occurred
End of status report
==== Log checksum 6877EB16B47C26CDD7192738E0D0ABBE79B39357650E66ECAA33B708BEC0C47A ====
 
Содержание индексной карты (.CUE)
REM GENRE Soul
REM DATE 2014
REM DISCID EB125110
REM COMMENT "ExactAudioCopy v1.0b3"
PERFORMER "Ray, Goodman & Brown"
TITLE "Take It To The Limit / Mood For Lovin'"
FILE "01 - Take It To The Limit.wav" WAVE
TRACK 01 AUDIO
TITLE "Take It To The Limit"
PERFORMER "Ray, Goodman & Brown"
INDEX 01 00:00:00
TRACK 02 AUDIO
TITLE "(Baby) Let's Make Love Tonight"
PERFORMER "Ray, Goodman & Brown"
INDEX 00 04:47:46
FILE "02 - (Baby) Let's Make Love Tonight.wav" WAVE
INDEX 01 00:00:00
TRACK 03 AUDIO
TITLE "Good Love"
PERFORMER "Ray, Goodman & Brown"
INDEX 00 05:17:61
FILE "03 - Good Love.wav" WAVE
INDEX 01 00:00:00
TRACK 04 AUDIO
TITLE "Celebrate Our Love"
PERFORMER "Ray, Goodman & Brown"
INDEX 00 03:50:38
FILE "04 - Celebrate Our Love.wav" WAVE
INDEX 01 00:00:00
TRACK 05 AUDIO
TITLE "Why Must I Wait"
PERFORMER "Ray, Goodman & Brown"
INDEX 00 05:02:46
FILE "05 - Why Must I Wait.wav" WAVE
INDEX 01 00:00:00
FILE "06 - Waiting For Dawn.wav" WAVE
TRACK 06 AUDIO
TITLE "Waiting For Dawn"
PERFORMER "Ray, Goodman & Brown"
INDEX 01 00:00:00
TRACK 07 AUDIO
TITLE "We've Got Tonight"
PERFORMER "Ray, Goodman & Brown"
INDEX 00 04:58:74
FILE "07 - We've Got Tonight.wav" WAVE
INDEX 01 00:00:00
TRACK 08 AUDIO
TITLE "Someone's Missing Your Love"
PERFORMER "Ray, Goodman & Brown"
INDEX 00 05:41:31
FILE "08 - Someone's Missing Your Love.wav" WAVE
INDEX 01 00:00:00
TRACK 09 AUDIO
TITLE "Where Did You Get That Body, Baby?"
PERFORMER "Ray, Goodman & Brown"
INDEX 00 04:59:34
FILE "09 - Where Did You Get That Body, Baby.wav" WAVE
INDEX 01 00:00:00
TRACK 10 AUDIO
TITLE "Mood For Lovin'"
PERFORMER "Ray, Goodman & Brown"
INDEX 00 04:53:65
FILE "10 - Mood For Lovin'.wav" WAVE
INDEX 01 00:00:00
TRACK 11 AUDIO
TITLE "Where Are You Now?"
PERFORMER "Ray, Goodman & Brown"
INDEX 00 04:13:38
FILE "11 - Where Are You Now.wav" WAVE
INDEX 01 00:00:00
TRACK 12 AUDIO
TITLE "Say It"
PERFORMER "Ray, Goodman & Brown"
INDEX 00 04:57:60
FILE "12 - Say It.wav" WAVE
INDEX 01 00:00:00
TRACK 13 AUDIO
TITLE "Electrified"
PERFORMER "Ray, Goodman & Brown"
INDEX 00 05:05:61
FILE "13 - Electrified.wav" WAVE
INDEX 01 00:00:00
TRACK 14 AUDIO
TITLE "Next Time I'll Know"
PERFORMER "Ray, Goodman & Brown"
INDEX 00 04:34:45
FILE "14 - Next Time I'll Know.wav" WAVE
INDEX 01 00:00:00
TRACK 15 AUDIO
TITLE "Never Stop Lovin' You"
PERFORMER "Ray, Goodman & Brown"
INDEX 00 05:42:23
FILE "15 - Never Stop Lovin' You.wav" WAVE
INDEX 01 00:00:00
TRACK 16 AUDIO
TITLE "Don't Make Me Wait"
PERFORMER "Ray, Goodman & Brown"
INDEX 00 05:01:43
FILE "16 - Don't Make Me Wait.wav" WAVE
INDEX 01 00:00:00
Приватный:
Нет (DHT включён)
Размер:
676.06 Мб (708,903,417 байт) » файлов: 27
Участники:
0 раздают, 0 качают (0 участников всего)
Внешние участники:
1 раздают, 0 качают (1 участников всего) [ Обновить ]
No seeders - write a personal message to user M0p94ok. Нет сидеров - пишите личное сообщение пользователю M0p94ok.
04:35
107
Нет комментариев. Ваш будет первым!