Поиск

(Soul-Jazz, Fusion) [CD] Lloyd McNeill & Marshall Hawkins - Tanner Suite - 1969 (2015), FLAC (tracks+.cue), lossless

(Soul-Jazz, Fusion) [CD] Lloyd McNeill & Marshall Hawkins - Tanner Suite - 1969 (2015), FLAC (tracks+.cue), lossless
Треклист:
Lloyd McNeill & Marshall Hawkins - Tanner Suite
Жанр: Soul-Jazz, Fusion
Носитель: CD
Страна-производитель диска (релиза): Великобритания
Год издания: 2015
Издатель (лейбл): Universal Sound
Номер по каталогу: US CD59
Аудиокодек: FLAC (*.flac)
Тип рипа: tracks+.cue
Битрейт аудио: lossless
Продолжительность: 43:15
Источник (релизер): stoichie (what)
Наличие сканов в содержимом раздачи: нет
Треклист:
01. Black Expatriate (11:28)
02. Tanner Blue (9:57)
03. Daniel in the Lion's Den (10:54)
04. The Banjo Lesson (10:56)
Состав:
Lloyd McNeill - flute
Marshall Hawkins - bass
Improvised and recorded in the galleries of the National Collection of Fine Arts, at the Tanner Exhibition, July 20, 1969.
Tribute to African American artist Henry Ossawa Tanner at the Smithsonian National Gallery of Art.
 
Лог создания рипа
Exact Audio Copy V1.0 beta 6 from 9. April 2015
EAC extraction logfile from 7. September 2015, 14:58
Lloyd McNeill & Marshall Hawkins / Tanner Suite
Used drive : MATSHITADVD+-RW UJ8FB Adapter: 1 ID: 0
Read mode : Secure
Utilize accurate stream : Yes
Defeat audio cache : Yes
Make use of C2 pointers : No
Read offset correction : 6
Overread into Lead-In and Lead-Out : No
Fill up missing offset samples with silence : Yes
Delete leading and trailing silent blocks : No
Null samples used in CRC calculations : Yes
Used interface : Native Win32 interface for Win NT & 2000
Gap handling : Appended to previous track
Used output format : User Defined Encoder
Selected bitrate : 1024 kBit/s
Quality : High
Add ID3 tag : No
Command line compressor : C:\Program Files\Flac\flac.exe
Additional command line options : -8 -V -T "ARTIST=%artist%" -T "TITLE=%title%" -T "ALBUM=%albumtitle%" -T "DATE=%year%" -T "TRACKNUMBER=%tracknr%" -T "GENRE=%genre%" -T "PERFORMER=%albuminterpret%" -T "COMPOSER=%composer%" %haslyrics%--tag-from-file=LYRICS="%lyricsfile%"%haslyrics% -T "ALBUMARTIST=%albumartist%" -T "DISCNUMBER=%cdnumber%" -T "TOTALDISCS=%totalcds%" -T "TOTALTRACKS=%numtracks%" -T "COMMENT=%comment%" %source% -o %dest%
TOC of the extracted CD
Track | Start | Length | Start sector | End sector
---------------------------------------------------------
1 | 0:00.00 | 11:28.11 | 0 | 51610
2 | 11:28.11 | 9:57.32 | 51611 | 96417
3 | 21:25.43 | 10:53.58 | 96418 | 145450
4 | 32:19.26 | 10:55.68 | 145451 | 194643
Track 1
Filename C:\EAC Rips\Lloyd McNeill & Marshall Hawkins - Tanner Suite (1969)\01 - Black Expatriate.wav
Pre-gap length 0:00:02.00
Peak level 100.0 %
Extraction speed 3.2 X
Track quality 100.0 %
Test CRC 064F12D3
Copy CRC 064F12D3
Accurately ripped (confidence 1) [FFED67D4] (AR v2)
Copy OK
Track 2
Filename C:\EAC Rips\Lloyd McNeill & Marshall Hawkins - Tanner Suite (1969)\02 - Tanner Blue.wav
Peak level 89.3 %
Extraction speed 3.3 X
Track quality 100.0 %
Test CRC E0CA0920
Copy CRC E0CA0920
Accurately ripped (confidence 1) [D73B27EF] (AR v2)
Copy OK
Track 3
Filename C:\EAC Rips\Lloyd McNeill & Marshall Hawkins - Tanner Suite (1969)\03 - Daniel In The Lion's Den.wav
Peak level 91.7 %
Extraction speed 4.6 X
Track quality 100.0 %
Test CRC 0AC16886
Copy CRC 0AC16886
Accurately ripped (confidence 1) [CF5484C1] (AR v2)
Copy OK
Track 4
Filename C:\EAC Rips\Lloyd McNeill & Marshall Hawkins - Tanner Suite (1969)\04 - The Banjo Lesson.wav
Peak level 100.0 %
Extraction speed 5.1 X
Track quality 100.0 %
Test CRC 4C5AEF4E
Copy CRC 4C5AEF4E
Accurately ripped (confidence 1) [15E3EE2E] (AR v2)
Copy OK
All tracks accurately ripped
No errors occurred
End of status report
---- CUETools DB Plugin V2.1.6
[CTDB TOCID: aK6H.jPilHO5gZtrZurw854YaRs-] found
Submit result: aK6H.jPilHO5gZtrZurw854YaRs- has been confirmed
Track | CTDB Status
1 | (1/1) Accurately ripped
2 | (1/1) Accurately ripped
3 | (1/1) Accurately ripped
4 | (1/1) Accurately ripped
==== Log checksum FBB3AB285470B2856B6A14C4086816D8C3D1B46A34A91B737A49FFA913677F93 ====
 
Содержание индексной карты (.CUE)
REM GENRE Jazz
REM DATE 1969
REM DISCID 320A2304
REM COMMENT "ExactAudioCopy v1.0b6"
PERFORMER "Lloyd McNeill & Marshall Hawkins"
TITLE "Tanner Suite"
FILE "01 - Black Expatriate.wav" WAVE
TRACK 01 AUDIO
TITLE "Black Expatriate"
PERFORMER "Lloyd McNeill & Marshall Hawkins"
ISRC GBBCK1400759
INDEX 01 00:00:00
FILE "02 - Tanner Blue.wav" WAVE
TRACK 02 AUDIO
TITLE "Tanner Blue"
PERFORMER "Lloyd McNeill & Marshall Hawkins"
ISRC GBBCK1400760
INDEX 01 00:00:00
FILE "03 - Daniel in the Lion's Den.wav" WAVE
TRACK 03 AUDIO
TITLE "Daniel in the Lion's Den"
PERFORMER "Lloyd McNeill & Marshall Hawkins"
ISRC GBBCK1400761
INDEX 01 00:00:00
FILE "04 - The Banjo Lesson.wav" WAVE
TRACK 04 AUDIO
TITLE "The Banjo Lesson"
PERFORMER "Lloyd McNeill & Marshall Hawkins"
ISRC GBBCK1400704
INDEX 01 00:00:00
 
Отчет CUETools
[CUETools log; Date: 30.01.2016 19:14:48; Version: 2.1.5]
[CTDB TOCID: aK6H.jPilHO5gZtrZurw854YaRs-] found.
Track | CTDB Status
1 | (3/3) Accurately ripped
2 | (3/3) Accurately ripped
3 | (3/3) Accurately ripped
4 | (3/3) Accurately ripped
[AccurateRip ID: 000772bc-001db76d-320a2304] found.
Track [ CRC | V2 ] Status
01 [4385d611|ffed67d4] (0+2/2) Accurately ripped
02 [068b9057|d73b27ef] (0+2/2) Accurately ripped
03 [6d3af2e3|cf5484c1] (0+2/2) Accurately ripped
04 [75a10203|15e3ee2e] (0+2/2) Accurately ripped
Track Peak [ CRC32 ] [W/O NULL] [ LOG ]
-- 100,0 [6CFD9E12] [3F8ADB4C]
01 100,0 [064F12D3] [7671A6C0] CRC32
02 89,3 [E0CA0920] [125AF2B0] CRC32
03 91,7 [0AC16886] [A9FF8513] CRC32
04 100,0 [4C5AEF4E] [EA8AE405] CRC32
 
Об альбоме (сборнике)
Soul Jazz Records / Universal Sound release the third album from deep jazz flautist and composer Lloyd McNeill (following the earlier ‘Asha’ and ‘Washington Suite’). ‘Tanner Suite’ is one of the most beautiful and by far the rarest of all McNeill’s records; a unique piece of music especially commissioned by the Smithsonian National Gallery Of Art in the late 1960s to accompany an exhibition of the work of Henry Ossawa Tanner, the first African-American painter ever to gain international success.
"Tanner Suite" was originally released in 1969 as a private, individually numbered pressing of 1000 copies on McNeill’s own Asha Record company and has never been issued since. Soul Jazz Records’ new pressing of this album is also limited to 1000 copies each on vinyl and CD. Both editions come in heavyweight exact-replica hard tip-on USA card sleeve original artwork.
Lloyd McNeill is a flautist, composer and painter. As a musician he studied with Eric Dolphy, played with Nina Simone, Mulatu Astatke, Nana Vasconceles, Ron Carter, Dom um Romao and Sabu Martinez. In the mid-1960s McNeill headed to Paris and became friends with Pablo Picasso.
Приватный:
Нет (DHT включён)
Размер:
124.86 Мб (130,929,002 байт) » файлов: 13
Участники:
0 раздают, 0 качают (0 участников всего)
Внешние участники:
2 раздают, 1 качают (3 участников всего) [ Обновить ]
Есть вопросы - пишите личное сообщение пользователю M0p94ok.
09:49
76
Нет комментариев. Ваш будет первым!