Поиск

(Funk, Soul) [CD] Macky Feary Band - Macky Feary Band - 1978 (2014 Japan Edition), FLAC (tracks+.cue), lossless

(Funk, Soul) [CD] Macky Feary Band - Macky Feary Band - 1978 (2014 Japan Edition), FLAC (tracks+.cue), lossless
Треклист:
Macky Feary Band - Macky Feary Band
Жанр: Funk, Soul
Носитель: CD
Страна-производитель диска (релиза): Япония
Год издания: 2014
Издатель (лейбл): Victor Entertainment
Номер по каталогу: VICP-65239
Страна исполнителя (группы): США
Аудиокодек: FLAC (*.flac)
Тип рипа: tracks+.cue
Битрейт аудио: lossless
Продолжительность: 28:34
Источник (релизер): undu (what)
Наличие сканов в содержимом раздачи: нет
Треклист:
01. You're Young (Feary) - 3:10
02. Catherine (Holomalia-Feary) - 4:08
03. Lullaby (Feary) - 3:14
04. I Remember You (Feary) - 2:53
05. A Million Stars (Souza) - 3:20
06. My Hands Do Play (Gibson) - 3:22
07. It Takes Two (Holomalia-Feary) - 4:05
08. Interlude in Mood (Gibson) - 1:37
09. Powerslide (Holomalia-Feary) - 2:45
 
Лог создания рипа
Exact Audio Copy V1.1 from 23. June 2015
EAC extraction logfile from 5. October 2015, 17:08
Macky Feary Band / Macky Feary Band
Used drive : TSSTcorpDVDWBD SH-B123L Adapter: 1 ID: 0
Read mode : Secure
Utilize accurate stream : Yes
Defeat audio cache : Yes
Make use of C2 pointers : No
Read offset correction : 6
Overread into Lead-In and Lead-Out : No
Fill up missing offset samples with silence : Yes
Delete leading and trailing silent blocks : No
Null samples used in CRC calculations : Yes
Used interface : Native Win32 interface for Win NT & 2000
Gap handling : Appended to previous track
Used output format : User Defined Encoder
Selected bitrate : 896 kBit/s
Quality : High
Add ID3 tag : No
Command line compressor : D:\User Program Files\encoders\flac\flac.exe
Additional command line options : -8 -V -T "ARTIST=%artist%" -T "TITLE=%title%" -T "ALBUM=%albumtitle%" -T "DATE=%year%" -T "TRACKNUMBER=%tracknr%" -T "GENRE=%genre%" -T "PERFORMER=%albuminterpret%" -T "COMPOSER=%composer%" %haslyrics%--tag-from-file=LYRICS="%lyricsfile%"%haslyrics% -T "ALBUMARTIST=%albumartist%" -T "DISCNUMBER=%cdnumber%" -T "TOTALDISCS=%totalcds%" -T "TOTALTRACKS=%numtracks%" -T "COMMENT=%comment%" %source% -o %dest%
TOC of the extracted CD
Track | Start | Length | Start sector | End sector
---------------------------------------------------------
1 | 0:00.00 | 3:10.35 | 0 | 14284
2 | 3:10.35 | 4:07.50 | 14285 | 32859
3 | 7:18.10 | 3:14.03 | 32860 | 47412
4 | 10:32.13 | 2:53.15 | 47413 | 60402
5 | 13:25.28 | 3:19.57 | 60403 | 75384
6 | 16:45.10 | 3:21.40 | 75385 | 90499
7 | 20:06.50 | 4:04.45 | 90500 | 108844
8 | 24:11.20 | 1:37.33 | 108845 | 116152
9 | 25:48.53 | 2:45.30 | 116153 | 128557
Track 1
Filename D:\Users\Public\Music\ripped\Macky Feary Band - Macky Feary Band (2014) {VICP-65239}\01. You're Young.wav
Pre-gap length 0:00:02.00
Peak level 99.9 %
Extraction speed 2.0 X
Track quality 100.0 %
Test CRC E4BE010A
Copy CRC E4BE010A
Track not present in AccurateRip database
Copy OK
Track 2
Filename D:\Users\Public\Music\ripped\Macky Feary Band - Macky Feary Band (2014) {VICP-65239}\02. Catherine.wav
Pre-gap length 0:00:01.39
Peak level 94.4 %
Extraction speed 1.9 X
Track quality 99.9 %
Test CRC 65A1B008
Copy CRC 65A1B008
Track not present in AccurateRip database
Copy OK
Track 3
Filename D:\Users\Public\Music\ripped\Macky Feary Band - Macky Feary Band (2014) {VICP-65239}\03. Lullaby.wav
Pre-gap length 0:00:01.36
Peak level 94.4 %
Extraction speed 2.2 X
Track quality 100.0 %
Test CRC 3C4AB54A
Copy CRC 3C4AB54A
Track not present in AccurateRip database
Copy OK
Track 4
Filename D:\Users\Public\Music\ripped\Macky Feary Band - Macky Feary Band (2014) {VICP-65239}\04. I Remember You.wav
Pre-gap length 0:00:01.39
Peak level 94.4 %
Extraction speed 2.3 X
Track quality 100.0 %
Test CRC A7DC54C0
Copy CRC A7DC54C0
Track not present in AccurateRip database
Copy OK
Track 5
Filename D:\Users\Public\Music\ripped\Macky Feary Band - Macky Feary Band (2014) {VICP-65239}\05. A Million Stars.wav
Pre-gap length 0:00:01.34
Peak level 94.4 %
Extraction speed 2.5 X
Track quality 100.0 %
Test CRC 0D9F2437
Copy CRC 0D9F2437
Track not present in AccurateRip database
Copy OK
Track 6
Filename D:\Users\Public\Music\ripped\Macky Feary Band - Macky Feary Band (2014) {VICP-65239}\06. My Hands Do Play.wav
Pre-gap length 0:00:01.39
Peak level 100.0 %
Extraction speed 2.2 X
Track quality 99.9 %
Test CRC 24B8BE4F
Copy CRC 24B8BE4F
Track not present in AccurateRip database
Copy OK
Track 7
Filename D:\Users\Public\Music\ripped\Macky Feary Band - Macky Feary Band (2014) {VICP-65239}\07. It Takes Two.wav
Pre-gap length 0:00:01.34
Peak level 94.4 %
Extraction speed 2.9 X
Track quality 100.0 %
Test CRC BF53417F
Copy CRC BF53417F
Track not present in AccurateRip database
Copy OK
Track 8
Filename D:\Users\Public\Music\ripped\Macky Feary Band - Macky Feary Band (2014) {VICP-65239}\08. Interlude In Mood.wav
Pre-gap length 0:00:01.36
Peak level 100.0 %
Extraction speed 2.5 X
Track quality 100.0 %
Test CRC 928FEC1D
Copy CRC 928FEC1D
Track not present in AccurateRip database
Copy OK
Track 9
Filename D:\Users\Public\Music\ripped\Macky Feary Band - Macky Feary Band (2014) {VICP-65239}\09. Powerslide.wav
Pre-gap length 0:00:01.29
Peak level 94.4 %
Extraction speed 2.9 X
Track quality 100.0 %
Test CRC DB43387F
Copy CRC DB43387F
Track not present in AccurateRip database
Copy OK
None of the tracks are present in the AccurateRip database
No errors occurred
End of status report
---- CUETools DB Plugin V2.1.6
[CTDB TOCID: PxFw6tJM1rIjWA.tOu4dQZ4JiLI-] disk not present in database
Submit result: PxFw6tJM1rIjWA.tOu4dQZ4JiLI- has been uploaded
==== Log checksum 7442D05899A360462D6AFD92A7352AAC686118D17F7A3D890075A9F9A5F7F737 ====
 
Содержание индексной карты (.CUE)
REM GENRE Jazz
REM DATE 1978
REM DISCID 5D06B209
REM COMMENT "ExactAudioCopy v1.1"
CATALOG 4988002433551
PERFORMER "Macky Feary Band"
TITLE "Macky Feary Band"
FILE "01 - You're Young.wav" WAVE
TRACK 01 AUDIO
TITLE "You're Young"
PERFORMER "Macky Feary Band"
INDEX 01 00:00:00
TRACK 02 AUDIO
TITLE "Catherine"
PERFORMER "Macky Feary Band"
INDEX 00 03:08:71
FILE "02 - Catherine.wav" WAVE
INDEX 01 00:00:00
TRACK 03 AUDIO
TITLE "Lullaby"
PERFORMER "Macky Feary Band"
INDEX 00 04:06:14
FILE "03 - Lullaby.wav" WAVE
INDEX 01 00:00:00
TRACK 04 AUDIO
TITLE "I Remember You"
PERFORMER "Macky Feary Band"
INDEX 00 03:12:39
FILE "04 - I Remember You.wav" WAVE
INDEX 01 00:00:00
TRACK 05 AUDIO
TITLE "A Million Stars"
PERFORMER "Macky Feary Band"
INDEX 00 02:51:56
FILE "05 - A Million Stars.wav" WAVE
INDEX 01 00:00:00
TRACK 06 AUDIO
TITLE "My Hands Do Play"
PERFORMER "Macky Feary Band"
INDEX 00 03:18:18
FILE "06 - My Hands Do Play.wav" WAVE
INDEX 01 00:00:00
TRACK 07 AUDIO
TITLE "It Takes Two"
PERFORMER "Macky Feary Band"
INDEX 00 03:20:06
FILE "07 - It Takes Two.wav" WAVE
INDEX 01 00:00:00
TRACK 08 AUDIO
TITLE "Interlude in Mood"
PERFORMER "Macky Feary Band"
INDEX 00 04:03:09
FILE "08 - Interlude in Mood.wav" WAVE
INDEX 01 00:00:00
TRACK 09 AUDIO
TITLE "Powerslide"
PERFORMER "Macky Feary Band"
INDEX 00 01:36:04
FILE "09 - Powerslide.wav" WAVE
INDEX 01 00:00:00
 
Об альбоме (сборнике)
This album was his first break through as a solo artist.
I'm sure if you listen to Kalapana (Local Island Rock Band done good). Then you know how important Mackey Feary was to the band. From "You're Young, "Catherine" and "I Remember You" . Clearly the ballad hits in this Album. Overall Album carries a mixture of Easy Listen/Jazz. First time on CD, This is truely a treat.
Have a listen and hear how some of the Local Talent in Hawaii really made the difference. Check this out! This album was first release 25 years ago. Not to bad for a Local Boy. Mahalo
-- from amazon
 
Состав
Mackey Feary - bass guitar
Mackey Feary, Jimmy Funai - electric guitar, acoustic guitar
Johnny Madrid - flugelhorn
Gabe Baltazar - saxophone
Kevin Daley - drums
David Yoshiteru - piano, electric clavinet
Gaylord Holomalia - synthesizer
Mackey Feary, David Yoshiteru - bass synthesizer
Gaylord Holomalia, David Yoshiteru - strings synthesizer, electric piano, organ
Creed Fernandez - percussion
Nohelan Cypriano, Bonnie Gearheart, Azzue McCall - background vocals
Recorded at Studio "Sounds of Hawai" in 1978.
Приватный:
Нет (DHT включён)
Размер:
153.89 Мб (161,360,331 байт) » файлов: 22
Участники:
0 раздают, 0 качают (0 участников всего)
Внешние участники:
1 раздают, 0 качают (1 участников всего) [ Обновить ]
No seeders - write a personal message to user M0p94ok. Нет сидеров - пишите личное сообщение пользователю M0p94ok.
09:49
63
Нет комментариев. Ваш будет первым!