Поиск

(Neo Soul) [CD] Eagle Nebula - Cosmic Headphones - 2008, FLAC (tracks+.cue), lossless

(Neo Soul) [CD] Eagle Nebula - Cosmic Headphones - 2008, FLAC (tracks+.cue), lossless
Треклист:
Eagle Nebula / Cosmic Headphones
Жанр: Neo Soul
Носитель: CD
Страна-производитель диска (релиза): Germany
Год издания: 2008
Издатель (лейбл): ePISTROPHIK PEACH SOUND
Номер по каталогу: EP003-2
Аудиокодек: FLAC (*.flac)
Тип рипа: tracks+.cue
Битрейт аудио: lossless
Продолжительность: 0:30:48.
Источник (релизер): clustert
Наличие сканов в содержимом раздачи: да
Треклист:
01. Infomercial [0:01:38.45]
02. Daily Debut [0:03:48.52]
03. Ether Cash [0:02:27.52]
04. Page 2 [0:01:20.11]
05. Street Shrine [0:02:29.48]
06. What I Like [0:02:49.40]
07. Fonktion 101 [0:00:26.29]
08. Jitterbug Fonk [0:02:33.20]
09. Celebrity Stylist [0:02:31.28]
10. Funny Hip Hop [0:03:44.54]
11. Napp Rock [0:01:26.53]
12. Spaceship Earth [0:02:22.00]
13. Clear Blue Sky [0:03:10.16]
 
Лог создания рипа
Exact Audio Copy V1.0 beta 3 from 29. August 2011
Отчёт EAC об извлечении, выполненном 6. января 2016, 16:49
Eagle Nebula / Cosmic Headphones
Дисковод: ASUS DRW-1814BLT Adapter: 4 ID: 0
Режим чтения : Достоверность
Использование точного потока : Да
Отключение кэша аудио : Да
Использование указателей C2 : Нет
Коррекция смещения при чтении : 6
Способность читать области Lead-in и Lead-out : Нет
Заполнение пропущенных сэмплов тишиной : Да
Удаление блоков с тишиной в начале и конце : Нет
При вычислениях CRC использовались нулевые сэмплы : Да
Интерфейс : Встроенный Win32-интерфейс для Win NT/2000
Обработка зазоров : Добавлено к предыдущему треку
Выходной формат : Пользовательский кодировщик
Выбранный битрейт : 128 kBit/s
Качество : Высокий
Добавление ID3-тега : Нет
Утилита сжатия : C:\Program Files\Exact Audio Copy\Flac\flac.exe
Дополнительные параметры : -V -8 -T "Genre=%genre%" -T "Artist=%artist%" -T "Title=%title%" -T "Album=%albumtitle%" -T "Date=%year%" -T "Tracknumber=%tracknr%" -T "Comment=EAC1.0b2 FLAC -8" %source%
TOC извлечённого CD
Трек | Старт | Длительность | Начальный сектор | Конечный сектор
---------------------------------------------------------------------
1 | 0:00.00 | 1:38.45 | 0 | 7394
2 | 1:38.45 | 3:48.52 | 7395 | 24546
3 | 5:27.22 | 2:27.52 | 24547 | 35623
4 | 7:54.74 | 1:20.11 | 35624 | 41634
5 | 9:15.10 | 2:29.48 | 41635 | 52857
6 | 11:44.58 | 2:49.40 | 52858 | 65572
7 | 14:34.23 | 0:26.29 | 65573 | 67551
8 | 15:00.52 | 2:33.20 | 67552 | 79046
9 | 17:33.72 | 2:31.28 | 79047 | 90399
10 | 20:05.25 | 3:44.54 | 90400 | 107253
11 | 23:50.04 | 1:26.53 | 107254 | 113756
12 | 25:16.57 | 2:22.00 | 113757 | 124406
13 | 27:38.57 | 3:10.16 | 124407 | 138672
Трек 1
Имя файла R:\Раздача 57\Eagle Nebula - Cosmic Headphones - 2008\01 Infomercial.wav
Длина предзазора 0:00:02.00
Пиковый уровень 98.8 %
Скорость извлечения 2.7 X
Качество трека 99.8 %
CRC теста 76053128
CRC копии 76053128
Трек не обнаружен в базе AccurateRip
Копирование... OK
Трек 2
Имя файла R:\Раздача 57\Eagle Nebula - Cosmic Headphones - 2008\02 Daily Debut.wav
Пиковый уровень 99.0 %
Скорость извлечения 5.3 X
Качество трека 100.0 %
CRC теста B43291A6
CRC копии B43291A6
Трек не обнаружен в базе AccurateRip
Копирование... OK
Трек 3
Имя файла R:\Раздача 57\Eagle Nebula - Cosmic Headphones - 2008\03 Ether Cash.wav
Пиковый уровень 98.8 %
Скорость извлечения 3.7 X
Качество трека 99.9 %
CRC теста 3AF5C939
CRC копии 3AF5C939
Трек не обнаружен в базе AccurateRip
Копирование... OK
Трек 4
Имя файла R:\Раздача 57\Eagle Nebula - Cosmic Headphones - 2008\04 Page 2.wav
Пиковый уровень 98.8 %
Скорость извлечения 4.7 X
Качество трека 100.0 %
CRC теста 77AEA3B3
CRC копии 77AEA3B3
Трек не обнаружен в базе AccurateRip
Копирование... OK
Трек 5
Имя файла R:\Раздача 57\Eagle Nebula - Cosmic Headphones - 2008\05 Street Shrine.wav
Пиковый уровень 100.0 %
Скорость извлечения 5.8 X
Качество трека 100.0 %
CRC теста 684FCBB6
CRC копии 684FCBB6
Трек не обнаружен в базе AccurateRip
Копирование... OK
Трек 6
Имя файла R:\Раздача 57\Eagle Nebula - Cosmic Headphones - 2008\06 What I Like.wav
Пиковый уровень 100.0 %
Скорость извлечения 6.2 X
Качество трека 100.0 %
CRC теста 694092AB
CRC копии 694092AB
Трек не обнаружен в базе AccurateRip
Копирование... OK
Трек 7
Имя файла R:\Раздача 57\Eagle Nebula - Cosmic Headphones - 2008\07 Fonktion 101.wav
Пиковый уровень 92.6 %
Скорость извлечения 3.2 X
Качество трека 100.0 %
CRC теста 7D6F3E8F
CRC копии 7D6F3E8F
Трек не обнаружен в базе AccurateRip
Копирование... OK
Трек 8
Имя файла R:\Раздача 57\Eagle Nebula - Cosmic Headphones - 2008\08 Jitterbug Fonk.wav
Пиковый уровень 99.1 %
Скорость извлечения 6.4 X
Качество трека 100.0 %
CRC теста EB9120E9
CRC копии EB9120E9
Трек не обнаружен в базе AccurateRip
Копирование... OK
Трек 9
Имя файла R:\Раздача 57\Eagle Nebula - Cosmic Headphones - 2008\09 Celebrity Stylist.wav
Пиковый уровень 98.8 %
Скорость извлечения 4.7 X
Качество трека 99.9 %
CRC теста 31FEE073
CRC копии 31FEE073
Трек не обнаружен в базе AccurateRip
Копирование... OK
Трек 10
Имя файла R:\Раздача 57\Eagle Nebula - Cosmic Headphones - 2008\10 Funny Hip Hop.wav
Пиковый уровень 98.8 %
Скорость извлечения 7.4 X
Качество трека 100.0 %
CRC теста 54D54B3C
CRC копии 54D54B3C
Трек не обнаружен в базе AccurateRip
Копирование... OK
Трек 11
Имя файла R:\Раздача 57\Eagle Nebula - Cosmic Headphones - 2008\11 Napp Rock.wav
Пиковый уровень 98.8 %
Скорость извлечения 6.2 X
Качество трека 100.0 %
CRC теста 78FBC8B8
CRC копии 78FBC8B8
Трек не обнаружен в базе AccurateRip
Копирование... OK
Трек 12
Имя файла R:\Раздача 57\Eagle Nebula - Cosmic Headphones - 2008\12 Spaceship Earth.wav
Пиковый уровень 98.8 %
Скорость извлечения 7.1 X
Качество трека 100.0 %
CRC теста A6A216CD
CRC копии A6A216CD
Трек не обнаружен в базе AccurateRip
Копирование... OK
Трек 13
Имя файла R:\Раздача 57\Eagle Nebula - Cosmic Headphones - 2008\13 Clear Blue Sky.wav
Длина предзазора 0:00:00.30
Пиковый уровень 98.8 %
Скорость извлечения 5.5 X
Качество трека 99.9 %
CRC теста B3EECD85
CRC копии B3EECD85
Трек не обнаружен в базе AccurateRip
Копирование... OK
Ни одного трека нет в базе AccurateRip
Ошибок не произошло
Конец отчёта
==== Контрольная сумма отчёта 1672DF132729971191B2213D7807905AEA9A3641974E6BF69A15159C4209D29D ====
 
Содержание индексной карты (.CUE)
REM GENRE "Neo Soul"
REM DATE 2008
REM DISCID 9B07380D
REM COMMENT "ExactAudioCopy v1.0b3"
PERFORMER "Eagle Nebula"
TITLE "Cosmic Headphones"
FILE "01 Infomercial.wav" WAVE
TRACK 01 AUDIO
TITLE "Infomercial"
PERFORMER "Eagle Nebula"
INDEX 01 00:00:00
FILE "02 Daily Debut.wav" WAVE
TRACK 02 AUDIO
TITLE "Daily Debut"
PERFORMER "Eagle Nebula"
INDEX 01 00:00:00
FILE "03 Ether Cash.wav" WAVE
TRACK 03 AUDIO
TITLE "Ether Cash"
PERFORMER "Eagle Nebula"
INDEX 01 00:00:00
FILE "04 Page 2.wav" WAVE
TRACK 04 AUDIO
TITLE "Page 2"
PERFORMER "Eagle Nebula"
INDEX 01 00:00:00
FILE "05 Street Shrine.wav" WAVE
TRACK 05 AUDIO
TITLE "Street Shrine"
PERFORMER "Eagle Nebula"
INDEX 01 00:00:00
FILE "06 What I Like.wav" WAVE
TRACK 06 AUDIO
TITLE "What I Like"
PERFORMER "Eagle Nebula"
INDEX 01 00:00:00
FILE "07 Fonktion 101.wav" WAVE
TRACK 07 AUDIO
TITLE "Fonktion 101"
PERFORMER "Eagle Nebula"
INDEX 01 00:00:00
FILE "08 Jitterbug Fonk.wav" WAVE
TRACK 08 AUDIO
TITLE "Jitterbug Fonk"
PERFORMER "Eagle Nebula"
INDEX 01 00:00:00
FILE "09 Celebrity Stylist.wav" WAVE
TRACK 09 AUDIO
TITLE "Celebrity Stylist"
PERFORMER "Eagle Nebula"
INDEX 01 00:00:00
FILE "10 Funny Hip Hop.wav" WAVE
TRACK 10 AUDIO
TITLE "Funny Hip Hop"
PERFORMER "Eagle Nebula"
INDEX 01 00:00:00
FILE "11 Napp Rock.wav" WAVE
TRACK 11 AUDIO
TITLE "Napp Rock"
PERFORMER "Eagle Nebula"
INDEX 01 00:00:00
FILE "12 Spaceship Earth.wav" WAVE
TRACK 12 AUDIO
TITLE "Spaceship Earth"
PERFORMER "Eagle Nebula"
INDEX 01 00:00:00
TRACK 13 AUDIO
TITLE "Clear Blue Sky"
PERFORMER "Eagle Nebula"
INDEX 00 02:21:45
FILE "13 Clear Blue Sky.wav" WAVE
INDEX 01 00:00:00
Приватный:
Нет (DHT включён)
Размер:
196.82 Мб (206,375,991 байт) » файлов: 20
Участники:
0 раздают, 0 качают (0 участников всего)
Внешние участники:
1 раздают, 0 качают (1 участников всего) [ Обновить ]
No seeders - write personal message to user M0p94ok. Нет сидеров - пишите личное сообщение пользователю M0p94ok.
09:50
76
Нет комментариев. Ваш будет первым!