Поиск

(Deep Soul) [CD] Linda Jones - Hypnotized: 20 Golden Classics - 1994, FLAC (tracks+.cue), lossless

(Deep Soul) [CD] Linda Jones - Hypnotized: 20 Golden Classics - 1994, FLAC (tracks+.cue), lossless
Треклист:
Linda Jones / Hypnotized: 20 Golden Classics
Жанр: Deep Soul
Носитель: CD
Год издания: 1994
Издатель (лейбл): Collectables
Номер по каталогу: CDL-CD-5452
Аудиокодек: FLAC (*.flac)
Тип рипа: tracks+.cue
Битрейт аудио: lossless
Продолжительность: 00:57:09
Источник (релизер): MrDap
Наличие сканов в содержимом раздачи: нет
Треклист:
1. Hypnotized
2. I Can't Stop Lovin' My Baby
3. Give My Love A Try
4. You Can't Take It
5. What've I Done (To Make You Mad)
6. I Can't Stand It
7. The Things I've Been Through
8. If Only (We Had Met Sooner)
9. Make Me Surrender (Baby, Baby, Please)
10. A Last Minute Miracle
11. Seeing Is Believing
12. I'll Take Back My Love
13. Fugitive From Love
14. Ooh Baby You Move Me
15. For Your Precious Love
16. Not On The Outside
17. Stay With Me Forever
18. I'll Be Sweeter Tomorrow
19. You Hit Me Like TNT
20. Take This Boy Out Of The Country
 
Лог создания рипа
Exact Audio Copy V0.99 prebeta 5 from 4. May 2009
EAC extraction logfile from 29. March 2010, 15:11
Linda Jones / Linda Jones 20 Golden CLassics
Used drive : HP DVD Writer 1270d Adapter: 5 ID: 0
Read mode : Secure
Utilize accurate stream : Yes
Defeat audio cache : Yes
Make use of C2 pointers : No
Read offset correction : 6
Overread into Lead-In and Lead-Out : No
Fill up missing offset samples with silence : Yes
Delete leading and trailing silent blocks : No
Null samples used in CRC calculations : Yes
Used interface : Installed external ASPI interface
Gap handling : Appended to previous track
Used output format : User Defined Encoder
Selected bitrate : 128 kBit/s
Quality : High
Add ID3 tag : No
Command line compressor : C:\Program Files\Exact Audio Copy\Flac\flac.exe
Additional command line options : -8 -A tukey(0.25) -A gauss(0.1875) -b 4096 -V -T "artist=%a" -T "title=%t" -T "album=%g" -T "date=%y" -T "tracknumber=%n" -T "genre=%m" %s
TOC of the extracted CD
Track | Start | Length | Start sector | End sector
---------------------------------------------------------
1 | 0:00.25 | 2:41.22 | 25 | 12121
2 | 2:41.47 | 2:05.65 | 12122 | 21561
3 | 4:47.37 | 2:34.55 | 21562 | 33166
4 | 7:22.17 | 2:18.10 | 33167 | 43526
5 | 9:40.27 | 2:17.48 | 43527 | 53849
6 | 11:58.00 | 2:21.50 | 53850 | 64474
7 | 14:19.50 | 3:17.00 | 64475 | 79249
8 | 17:36.50 | 2:40.52 | 79250 | 91301
9 | 20:17.27 | 2:39.03 | 91302 | 103229
10 | 22:56.30 | 2:34.62 | 103230 | 114841
11 | 25:31.17 | 3:18.18 | 114842 | 129709
12 | 28:49.35 | 2:56.72 | 129710 | 142981
13 | 31:46.32 | 3:00.00 | 142982 | 156481
14 | 34:46.32 | 2:30.50 | 156482 | 167781
15 | 37:17.07 | 4:25.30 | 167782 | 187686
16 | 41:42.37 | 3:59.68 | 187687 | 205679
17 | 45:42.30 | 3:32.62 | 205680 | 221641
18 | 49:15.17 | 3:06.63 | 221642 | 235654
19 | 52:22.05 | 2:20.15 | 235655 | 246169
20 | 54:42.20 | 2:26.62 | 246170 | 257181
Track 1
Filename F:\Music Place\FLAC & WAV\Linda Jones - Hypnotized (1994)\01. Linda Jones - Hypnotized.wav
Pre-gap length 0:00:02.33
Peak level 82.2 %
Track quality 100.0 %
Test CRC 871E9A75
Copy CRC 871E9A75
Track not present in AccurateRip database
Copy OK
Track 2
Filename F:\Music Place\FLAC & WAV\Linda Jones - Hypnotized (1994)\02. Linda Jones - I Can't Stop Lovin' My Baby.wav
Pre-gap length 0:00:03.62
Peak level 93.4 %
Track quality 99.9 %
Test CRC 46675A17
Copy CRC 46675A17
Track not present in AccurateRip database
Copy OK
Track 3
Filename F:\Music Place\FLAC & WAV\Linda Jones - Hypnotized (1994)\03. Linda Jones - Give My Love A Try.wav
Pre-gap length 0:00:03.49
Peak level 81.2 %
Track quality 99.9 %
Test CRC 08F6EB51
Copy CRC 08F6EB51
Track not present in AccurateRip database
Copy OK
Track 4
Filename F:\Music Place\FLAC & WAV\Linda Jones - Hypnotized (1994)\04. Linda Jones - You Can't Take It.wav
Pre-gap length 0:00:03.52
Peak level 75.6 %
Track quality 99.9 %
Test CRC 5B15140F
Copy CRC 5B15140F
Track not present in AccurateRip database
Copy OK
Track 5
Filename F:\Music Place\FLAC & WAV\Linda Jones - Hypnotized (1994)\05. Linda Jones - What've I Done (To Make You Mad).wav
Pre-gap length 0:00:03.56
Peak level 68.1 %
Track quality 100.0 %
Test CRC A8431CC0
Copy CRC A8431CC0
Track not present in AccurateRip database
Copy OK
Track 6
Filename F:\Music Place\FLAC & WAV\Linda Jones - Hypnotized (1994)\06. Linda Jones - I Can't Stand It.wav
Pre-gap length 0:00:03.56
Peak level 77.4 %
Track quality 100.0 %
Test CRC 83664AA0
Copy CRC 83664AA0
Track not present in AccurateRip database
Copy OK
Track 7
Filename F:\Music Place\FLAC & WAV\Linda Jones - Hypnotized (1994)\07. Linda Jones - The Things I've Been Through.wav
Pre-gap length 0:00:03.60
Peak level 82.5 %
Track quality 100.0 %
Test CRC 9C883DE0
Copy CRC 9C883DE0
Track not present in AccurateRip database
Copy OK
Track 8
Filename F:\Music Place\FLAC & WAV\Linda Jones - Hypnotized (1994)\08. Linda Jones - If Only (We Had Met Sooner).wav
Pre-gap length 0:00:03.56
Peak level 66.3 %
Track quality 100.0 %
Test CRC 8BE72671
Copy CRC 8BE72671
Track not present in AccurateRip database
Copy OK
Track 9
Filename F:\Music Place\FLAC & WAV\Linda Jones - Hypnotized (1994)\09. Linda Jones - Make Me Surrender (Baby, Baby, Please).wav
Pre-gap length 0:00:03.52
Peak level 87.9 %
Track quality 99.9 %
Test CRC C5B14FEB
Copy CRC C5B14FEB
Track not present in AccurateRip database
Copy OK
Track 10
Filename F:\Music Place\FLAC & WAV\Linda Jones - Hypnotized (1994)\10. Linda Jones - A Last Minute Miracle.wav
Pre-gap length 0:00:03.60
Peak level 68.6 %
Track quality 100.0 %
Test CRC C5644D9C
Copy CRC C5644D9C
Track not present in AccurateRip database
Copy OK
Track 11
Filename F:\Music Place\FLAC & WAV\Linda Jones - Hypnotized (1994)\11. Linda Jones - Seeing Is Believing.wav
Pre-gap length 0:00:03.49
Peak level 71.0 %
Track quality 99.9 %
Test CRC 793D7539
Copy CRC 793D7539
Track not present in AccurateRip database
Copy OK
Track 12
Filename F:\Music Place\FLAC & WAV\Linda Jones - Hypnotized (1994)\12. Linda Jones - I'll Take Back My Love.wav
Pre-gap length 0:00:03.56
Peak level 82.5 %
Track quality 99.9 %
Test CRC 2F7D73DA
Copy CRC 2F7D73DA
Track not present in AccurateRip database
Copy OK
Track 13
Filename F:\Music Place\FLAC & WAV\Linda Jones - Hypnotized (1994)\13. Linda Jones - Fugitive From Love.wav
Pre-gap length 0:00:03.56
Peak level 67.6 %
Track quality 99.9 %
Test CRC 4830863C
Copy CRC 4830863C
Track not present in AccurateRip database
Copy OK
Track 14
Filename F:\Music Place\FLAC & WAV\Linda Jones - Hypnotized (1994)\14. Linda Jones - Ooh Baby You Move Me.wav
Pre-gap length 0:00:03.52
Peak level 62.3 %
Track quality 100.0 %
Test CRC CD966E3E
Copy CRC CD966E3E
Track not present in AccurateRip database
Copy OK
Track 15
Filename F:\Music Place\FLAC & WAV\Linda Jones - Hypnotized (1994)\15. Linda Jones - For Your Precious Love.wav
Pre-gap length 0:00:03.52
Peak level 71.6 %
Track quality 100.0 %
Test CRC 7FF59DDF
Copy CRC 7FF59DDF
Track not present in AccurateRip database
Copy OK
Track 16
Filename F:\Music Place\FLAC & WAV\Linda Jones - Hypnotized (1994)\16. Linda Jones - Not On The Outside.wav
Pre-gap length 0:00:03.92
Peak level 74.8 %
Track quality 100.0 %
Test CRC 0D9B32C2
Copy CRC 0D9B32C2
Track not present in AccurateRip database
Copy OK
Track 17
Filename F:\Music Place\FLAC & WAV\Linda Jones - Hypnotized (1994)\17. Linda Jones - Stay With Me Forever.wav
Pre-gap length 0:00:03.53
Peak level 71.3 %
Track quality 99.9 %
Test CRC 36B77BBF
Copy CRC 36B77BBF
Track not present in AccurateRip database
Copy OK
Track 18
Filename F:\Music Place\FLAC & WAV\Linda Jones - Hypnotized (1994)\18. Linda Jones - I'll Be Sweeter Tomorrow.wav
Pre-gap length 0:00:03.58
Peak level 80.9 %
Track quality 100.0 %
Test CRC F04BAE61
Copy CRC F04BAE61
Track not present in AccurateRip database
Copy OK
Track 19
Filename F:\Music Place\FLAC & WAV\Linda Jones - Hypnotized (1994)\19. Linda Jones - You Hit Me Like TNT.wav
Pre-gap length 0:00:03.56
Peak level 78.2 %
Track quality 100.0 %
Test CRC FEAB5004
Copy CRC FEAB5004
Track not present in AccurateRip database
Copy OK
Track 20
Filename F:\Music Place\FLAC & WAV\Linda Jones - Hypnotized (1994)\20. Linda Jones - Take This Boy Out Of The Country.wav
Pre-gap length 0:00:03.53
Peak level 63.6 %
Track quality 100.0 %
Test CRC 59DD1FCC
Copy CRC 59DD1FCC
Track not present in AccurateRip database
Copy OK
None of the tracks are present in the AccurateRip database
No errors occurred
End of status report
 
Содержание индексной карты (.CUE)
REM GENRE Soul
REM DATE 1994
REM DISCID 1D0D6514
REM COMMENT "ExactAudioCopy v0.99pb5"
PERFORMER "Linda Jones"
TITLE "Linda Jones 20 Golden CLassics"
FILE "01. Linda Jones - Hypnotized.wav" WAVE
TRACK 01 AUDIO
TITLE "Hypnotized"
PERFORMER "Linda Jones"
PREGAP 00:00:25
INDEX 01 00:00:00
TRACK 02 AUDIO
TITLE "I Can't Stop Lovin' My Babby"
PERFORMER "Linda Jones"
INDEX 00 02:37:50
FILE "02. Linda Jones - I Can't Stop Lovin' My Babby.wav" WAVE
INDEX 01 00:00:00
TRACK 03 AUDIO
TITLE "Give My Love A Try"
PERFORMER "Linda Jones"
INDEX 00 02:02:28
FILE "03. Linda Jones - Give My Love A Try.wav" WAVE
INDEX 01 00:00:00
TRACK 04 AUDIO
TITLE "You Can't Take It"
PERFORMER "Linda Jones"
INDEX 00 02:31:16
FILE "04. Linda Jones - You Can't Take It.wav" WAVE
INDEX 01 00:00:00
TRACK 05 AUDIO
TITLE "What've I Done (To Make You Mad)"
PERFORMER "Linda Jones"
INDEX 00 02:14:43
FILE "05. Linda Jones - What've I Done (To Make You Mad).wav" WAVE
INDEX 01 00:00:00
TRACK 06 AUDIO
TITLE "I Can't Stand It"
PERFORMER "Linda Jones"
INDEX 00 02:14:06
FILE "06. Linda Jones - I Can't Stand It.wav" WAVE
INDEX 01 00:00:00
TRACK 07 AUDIO
TITLE "The Things I've Been Through"
PERFORMER "Linda Jones"
INDEX 00 02:18:05
FILE "07. Linda Jones - The Things I've Been Through.wav" WAVE
INDEX 01 00:00:00
TRACK 08 AUDIO
TITLE "If Only (We Had Met Sooner)"
PERFORMER "Linda Jones"
INDEX 00 03:13:33
FILE "08. Linda Jones - If Only (We Had Met Sooner).wav" WAVE
INDEX 01 00:00:00
TRACK 09 AUDIO
TITLE "Make Me Surrender (Baby, Baby, Please)"
PERFORMER "Linda Jones"
INDEX 00 02:37:13
FILE "09. Linda Jones - Make Me Surrender (Baby, Baby, Please).wav" WAVE
INDEX 01 00:00:00
TRACK 10 AUDIO
TITLE "A Last Minute Miracle"
PERFORMER "Linda Jones"
INDEX 00 02:35:33
FILE "10. Linda Jones - A Last Minute Miracle.wav" WAVE
INDEX 01 00:00:00
TRACK 11 AUDIO
TITLE "Seeing Is Believing"
PERFORMER "Linda Jones"
INDEX 00 02:31:25
FILE "11. Linda Jones - Seeing Is Believing.wav" WAVE
INDEX 01 00:00:00
TRACK 12 AUDIO
TITLE "I'll Take Back My Love"
PERFORMER "Linda Jones"
INDEX 00 03:14:51
FILE "12. Linda Jones - I'll Take Back My Love.wav" WAVE
INDEX 01 00:00:00
TRACK 13 AUDIO
TITLE "Fugitive From Love"
PERFORMER "Linda Jones"
INDEX 00 02:53:30
FILE "13. Linda Jones - Fugitive From Love.wav" WAVE
INDEX 01 00:00:00
TRACK 14 AUDIO
TITLE "Ooh Baby You Move Me"
PERFORMER "Linda Jones"
INDEX 00 02:56:36
FILE "14. Linda Jones - Ooh Baby You Move Me.wav" WAVE
INDEX 01 00:00:00
TRACK 15 AUDIO
TITLE "For Your Precious Love"
PERFORMER "Linda Jones"
INDEX 00 02:27:11
FILE "15. Linda Jones - For Your Precious Love.wav" WAVE
INDEX 01 00:00:00
TRACK 16 AUDIO
TITLE "Not On The Outside"
PERFORMER "Linda Jones"
INDEX 00 04:21:36
FILE "16. Linda Jones - Not On The Outside.wav" WAVE
INDEX 01 00:00:00
TRACK 17 AUDIO
TITLE "Stay With Me Forever"
PERFORMER "Linda Jones"
INDEX 00 03:56:28
FILE "17. Linda Jones - Stay With Me Forever.wav" WAVE
INDEX 01 00:00:00
TRACK 18 AUDIO
TITLE "I'll Be Sweeter Tomorrow"
PERFORMER "Linda Jones"
INDEX 00 03:29:18
FILE "18. Linda Jones - I'll Be Sweeter Tomorrow.wav" WAVE
INDEX 01 00:00:00
TRACK 19 AUDIO
TITLE "You Hit Me Like TNT"
PERFORMER "Linda Jones"
INDEX 00 03:03:21
FILE "19. Linda Jones - You Hit Me Like TNT.wav" WAVE
INDEX 01 00:00:00
TRACK 20 AUDIO
TITLE "Take This Boy Out Of The Country"
PERFORMER "Linda Jones"
INDEX 00 02:16:50
FILE "20. Linda Jones - Take This Boy Out Of The Country.wav" WAVE
INDEX 01 00:00:00
 
Об исполнителе (группе)
 
Об альбоме (сборнике)
AllMusic Review by Ron Wynn
Linda Jones was a dynamic, sorely neglected late-'60s and early-'70s soul vocalist. There was no mild reaction to Jones' theatrical style; you were either amazed or appalled. She didn't deliver lyrics, she smashed and screamed them. This collection covers her bombastic hits, including the classic title track, "I'll Be Sweeter Tomorrrow," "For Your Precious Love" and several others. Any vocalist picked by Gladys Knight and Patti Labelle as one of their favorites merits closer examination. Unfortunately, her premature death in the early-'70s prevented Jones from gaining much exposure, as did the fact that she recorded for a host of small independents.
Приватный:
Нет (DHT включён)
Размер:
299.07 Мб (313,594,649 байт) » файлов: 28
Участники:
0 раздают, 0 качают (0 участников всего)
Внешние участники:
3 раздают, 1 качают (4 участников всего) [ Обновить ]
Есть вопросы - пишите личное сообщение пользователю M0p94ok.
09:51
52
Нет комментариев. Ваш будет первым!