Поиск

(Soul-Jazz, Broken Beat, Neo-Soul) [CD] Giovanca - Subway Silence - 2008, FLAC (tracks+.cue), lossless

(Soul-Jazz, Broken Beat, Neo-Soul) [CD] Giovanca - Subway Silence - 2008, FLAC (tracks+.cue), lossless
Треклист:
Giovanca - Subway Silence
Жанр: Soul-Jazz, Broken Beat, Neo-Soul
Носитель: CD
Страна-производитель диска (релиза): Нидерланды
Год издания: 2008
Издатель (лейбл): Dox Records
Номер по каталогу: Dox044
Аудиокодек: FLAC (*.flac)
Тип рипа: tracks+.cue
Битрейт аудио: lossless
Продолжительность: 45:50
Источник (релизер): IONBRAIN (what)
Наличие сканов в содержимом раздачи: сетевые
Треклист:
01. On My Way (3:26)
02. Joyride (4:29)
03. Hypnotize You (3:46)
04. A Matter of Facts (3:41)
05. Melancholic You (2:34)
06. Pure Bliss (4:37)
07. Moving Me (4:01)
08. You Can Do It (4:17)
09. Free (4:14)
10. To the Moon (3:52)
11. Stay Together (3:27)
12. U Again (3:26)
Состав:
Giovanca Ostiana - vocals
Kofi Anonymous, Benny Sings, Dean Tippet - bass, guitar
Mark Alban Lotz - flute
Gijs Anders van Straalen, Thijs Cuppen - piano, celesta
Andy Birnbaum - Rhodes
и др.
 
Лог создания рипа
Exact Audio Copy V0.99 prebeta 4 from 23. January 2008
EAC extraction logfile from 24. May 2009, 14:28
Giovanca / Subway Silence
Used drive : TSSTcorpDVD-ROM SH-D163A Adapter: 3 ID: 0
Read mode : Secure
Utilize accurate stream : Yes
Defeat audio cache : Yes
Make use of C2 pointers : No
Read offset correction : 6
Overread into Lead-In and Lead-Out : No
Fill up missing offset samples with silence : Yes
Delete leading and trailing silent blocks : No
Null samples used in CRC calculations : Yes
Used interface : Native Win32 interface for Win NT & 2000
Gap handling : Appended to previous track
Used output format : User Defined Encoder
Selected bitrate : 192 kBit/s
Quality : High
Add ID3 tag : No
Command line compressor : C:\Program Files\FLAC\flac.exe
Additional command line options : -V -8 -T "artist=%a" -T "title=%t" -T "album=%g" -T "date=%y" -T "tracknumber=%n" -T "genre=%m" %s
TOC of the extracted CD
Track | Start | Length | Start sector | End sector
---------------------------------------------------------
1 | 0:00.00 | 3:25.57 | 0 | 15431
2 | 3:25.57 | 4:28.42 | 15432 | 35573
3 | 7:54.24 | 3:46.22 | 35574 | 52545
4 | 11:40.46 | 3:40.54 | 52546 | 69099
5 | 15:21.25 | 2:33.70 | 69100 | 80644
6 | 17:55.20 | 4:36.53 | 80645 | 101397
7 | 22:31.73 | 4:00.41 | 101398 | 119438
8 | 26:32.39 | 4:17.18 | 119439 | 138731
9 | 30:49.57 | 4:14.34 | 138732 | 157815
10 | 35:04.16 | 3:51.47 | 157816 | 175187
11 | 38:55.63 | 3:26.74 | 175188 | 190711
12 | 42:22.62 | 3:25.54 | 190712 | 206140
Track 1
Filename D:\MP3\02_WaveCD\00_My_Uploads\Giovanca - Subway Silence FLAC\01 - On My Way.wav
Pre-gap length 0:00:02.00
Peak level 75.5 %
Track quality 100.0 %
Test CRC D1B6D826
Copy CRC D1B6D826
Copy OK
Track 2
Filename D:\MP3\02_WaveCD\00_My_Uploads\Giovanca - Subway Silence FLAC\02 - JoyRide.wav
Pre-gap length 0:00:02.00
Peak level 97.3 %
Track quality 100.0 %
Test CRC 820598B4
Copy CRC 820598B4
Copy OK
Track 3
Filename D:\MP3\02_WaveCD\00_My_Uploads\Giovanca - Subway Silence FLAC\03 - Hypnotize You.wav
Pre-gap length 0:00:02.00
Peak level 86.4 %
Track quality 100.0 %
Test CRC B7A1DC5D
Copy CRC B7A1DC5D
Copy OK
Track 4
Filename D:\MP3\02_WaveCD\00_My_Uploads\Giovanca - Subway Silence FLAC\04 - A Matter of Facts.wav
Pre-gap length 0:00:02.00
Peak level 97.1 %
Track quality 100.0 %
Test CRC EE6731E8
Copy CRC EE6731E8
Copy OK
Track 5
Filename D:\MP3\02_WaveCD\00_My_Uploads\Giovanca - Subway Silence FLAC\05 - Melancholic You.wav
Pre-gap length 0:00:02.40
Peak level 65.0 %
Track quality 100.0 %
Test CRC E599CD3F
Copy CRC E599CD3F
Copy OK
Track 6
Filename D:\MP3\02_WaveCD\00_My_Uploads\Giovanca - Subway Silence FLAC\06 - Pure Bliss.wav
Pre-gap length 0:00:02.00
Peak level 86.7 %
Track quality 100.0 %
Test CRC 6AB2E81A
Copy CRC 6AB2E81A
Copy OK
Track 7
Filename D:\MP3\02_WaveCD\00_My_Uploads\Giovanca - Subway Silence FLAC\07 - Moving Me.wav
Pre-gap length 0:00:02.00
Peak level 88.0 %
Track quality 100.0 %
Test CRC D6C93596
Copy CRC D6C93596
Copy OK
Track 8
Filename D:\MP3\02_WaveCD\00_My_Uploads\Giovanca - Subway Silence FLAC\08 - You Can Do It.wav
Pre-gap length 0:00:03.00
Peak level 86.8 %
Track quality 100.0 %
Test CRC D9EF78E4
Copy CRC D9EF78E4
Copy OK
Track 9
Filename D:\MP3\02_WaveCD\00_My_Uploads\Giovanca - Subway Silence FLAC\09 - Free.wav
Pre-gap length 0:00:02.00
Peak level 83.8 %
Track quality 100.0 %
Test CRC FD0C94BD
Copy CRC FD0C94BD
Copy OK
Track 10
Filename D:\MP3\02_WaveCD\00_My_Uploads\Giovanca - Subway Silence FLAC\10 - To the Moon.wav
Pre-gap length 0:00:02.40
Peak level 90.5 %
Track quality 100.0 %
Test CRC 434CD2BB
Copy CRC 434CD2BB
Copy OK
Track 11
Filename D:\MP3\02_WaveCD\00_My_Uploads\Giovanca - Subway Silence FLAC\11 - Stay Together.wav
Pre-gap length 0:00:02.00
Peak level 81.8 %
Track quality 100.0 %
Test CRC D642D0FD
Copy CRC D642D0FD
Copy OK
Track 12
Filename D:\MP3\02_WaveCD\00_My_Uploads\Giovanca - Subway Silence FLAC\12 - You Again.wav
Pre-gap length 0:00:02.00
Peak level 74.2 %
Track quality 100.0 %
Test CRC C306A1C2
Copy CRC C306A1C2
Copy OK
No errors occurred
End of status report
 
Содержание индексной карты (.CUE)
REM GENRE Soul
REM DATE 2008
REM DISCID 970ABC0C
REM COMMENT "ExactAudioCopy v0.99pb4"
PERFORMER "Giovanca"
TITLE "Subway Silence"
FILE "01 - On My Way.wav" WAVE
TRACK 01 AUDIO
TITLE "On My Way"
PERFORMER "Giovanca"
INDEX 01 00:00:00
TRACK 02 AUDIO
TITLE "Joyride"
PERFORMER "Giovanca"
INDEX 00 03:23:57
FILE "02 - Joyride.wav" WAVE
INDEX 01 00:00:00
TRACK 03 AUDIO
TITLE "Hypnotize You"
PERFORMER "Giovanca"
INDEX 00 04:26:42
FILE "03 - Hypnotize You.wav" WAVE
INDEX 01 00:00:00
TRACK 04 AUDIO
TITLE "A Matter of Facts"
PERFORMER "Giovanca"
INDEX 00 03:44:22
FILE "04 - A Matter of Facts.wav" WAVE
INDEX 01 00:00:00
TRACK 05 AUDIO
TITLE "Melancholic You"
PERFORMER "Giovanca"
INDEX 00 03:38:24
FILE "05 - Melancholic You.wav" WAVE
INDEX 01 00:00:00
TRACK 06 AUDIO
TITLE "Pure Bliss"
PERFORMER "Giovanca"
INDEX 00 02:31:70
FILE "06 - Pure Bliss.wav" WAVE
INDEX 01 00:00:00
TRACK 07 AUDIO
TITLE "Moving Me"
PERFORMER "Giovanca"
INDEX 00 04:34:53
FILE "07 - Moving Me.wav" WAVE
INDEX 01 00:00:00
TRACK 08 AUDIO
TITLE "You Can Do It"
PERFORMER "Giovanca"
INDEX 00 03:57:41
FILE "08 - You Can Do It.wav" WAVE
INDEX 01 00:00:00
TRACK 09 AUDIO
TITLE "Free"
PERFORMER "Giovanca"
INDEX 00 04:15:18
FILE "09 - Free.wav" WAVE
INDEX 01 00:00:00
TRACK 10 AUDIO
TITLE "To the Moon"
PERFORMER "Giovanca"
INDEX 00 04:12:04
FILE "10 - To the Moon.wav" WAVE
INDEX 01 00:00:00
TRACK 11 AUDIO
TITLE "Stay Together"
PERFORMER "Giovanca"
INDEX 00 03:49:47
FILE "11 - Stay Together.wav" WAVE
INDEX 01 00:00:00
TRACK 12 AUDIO
TITLE "U Again"
PERFORMER "Giovanca"
INDEX 00 03:24:74
FILE "12 - U Again.wav" WAVE
INDEX 01 00:00:00
 
Отчет CUETools
[CUETools log; Date: 02.02.2016 22:04:08; Version: 2.1.5]
[CTDB TOCID: H6QxvBCZsJJ4vBnRT2teno69gN4-] found.
Track | CTDB Status
1 | (8/8) Accurately ripped
2 | (8/8) Accurately ripped
3 | (8/8) Accurately ripped
4 | (7/8) Accurately ripped
5 | (8/8) Accurately ripped
6 | (8/8) Accurately ripped
7 | (8/8) Accurately ripped
8 | (8/8) Accurately ripped
9 | (8/8) Accurately ripped
10 | (8/8) Accurately ripped
11 | (8/8) Accurately ripped
12 | (8/8) Accurately ripped
[AccurateRip ID: 00147d03-00bfb898-970abc0c] found.
Track [ CRC | V2 ] Status
01 [e111c729|728ad156] (04+09/22) Accurately ripped
02 [bafc2f62|9d82fe29] (04+09/22) Accurately ripped
03 [f169f25c|e7a97c20] (04+09/21) Accurately ripped
04 [0b32e641|0ebb7708] (04+09/21) Accurately ripped
05 [3c430914|ab8f0f07] (04+09/22) Accurately ripped
06 [821d24e3|b1736b3d] (04+09/22) Accurately ripped
07 [35a24fe9|0f9abc4e] (04+09/21) Accurately ripped
08 [61c11887|e307c4e1] (04+09/20) Accurately ripped
09 [e7907f1c|df5a29fd] (04+09/21) Accurately ripped
10 [4e3c9827|be8974f0] (04+09/22) Accurately ripped
11 [f48ade0d|884b7950] (04+09/20) Accurately ripped
12 [e98e22f6|f641dd0a] (04+09/21) Accurately ripped
Offsetted by 68:
01 [ba9feeae] (05/22) Accurately ripped
02 [61143356] (05/22) Accurately ripped
03 [26bd0834] (04/21) Accurately ripped
04 [757989f5] (05/21) Accurately ripped
05 [73e4deec] (05/22) Accurately ripped
06 [a3d086f3] (05/22) Accurately ripped
07 [9d919afd] (05/21) Accurately ripped
08 [e9aa94fb] (05/20) Accurately ripped
09 [eb58d4fc] (05/21) Accurately ripped
10 [e29db733] (05/22) Accurately ripped
11 [db8722dd] (05/20) Accurately ripped
12 [904ed60e] (05/21) Accurately ripped
Offsetted by -98:
01 [1fcf9838] (00/22) No match (V2 was not tested)
02 [16e8a228] (00/22) No match (V2 was not tested)
03 [339f61f0] (00/21) No match (V2 was not tested)
04 [6a81cd27] (00/21) No match (V2 was not tested)
05 [7b2518a8] (00/22) No match (V2 was not tested)
06 [245e62db] (00/22) No match (V2 was not tested)
07 [6b23cd1f] (00/21) No match (V2 was not tested)
08 [da1dc70d] (00/20) No match (V2 was not tested)
09 [c3fed62c] (00/21) No match (V2 was not tested)
10 [077463e1] (00/22) No match (V2 was not tested)
11 [91103ea5] (00/20) No match (V2 was not tested)
12 [7218c41e] (00/21) No match (V2 was not tested)
Track Peak [ CRC32 ] [W/O NULL] [ LOG ]
-- 97,3 [445BA6E4] [574FFEEF]
01 75,5 [D1B6D826] [7C8CD4C2] CRC32
02 97,3 [820598B4] [4316C2E9] CRC32
03 86,4 [B7A1DC5D] [9E14EE83] CRC32
04 97,1 [EE6731E8] [0EA67EE4] CRC32
05 65,0 [E599CD3F] [9438A436] CRC32
06 86,7 [6AB2E81A] [4ECD5D30] CRC32
07 88,0 [D6C93596] [B4BCE92E] CRC32
08 86,8 [D9EF78E4] [958CCD9F] CRC32
09 83,8 [FD0C94BD] [A2E283DF] CRC32
10 90,5 [434CD2BB] [060532B1] CRC32
11 81,8 [D642D0FD] [B499A555] CRC32
12 74,2 [C306A1C2] [5892F343] CRC32
 
AllMusic Review by Adam Greenberg
After spending time as a backup singer for various Dutch artists, Giovanca set out in 2008 with her own debut, Subway Silence. The Netherlands might not be the first place one looks for fresh takes on modern soul, but Giovanca provides plenty of new sounds. Her vocals on Subway Silence have drawn legitimate comparisons to Corinne Bailey Rae's quiet, carefree attitude, and the more sultry aspects of Erykah Badu or Macy Gray. The arrangements themselves range from choppy upbeat ideas to classic '60s elements, all with an entirely new look at soul that's nostalgic at the same time.
Приватный:
Нет (DHT включён)
Размер:
277.85 Мб (291,342,645 байт) » файлов: 20
Участники:
0 раздают, 0 качают (0 участников всего)
Внешние участники:
2 раздают, 1 качают (3 участников всего) [ Обновить ]
Есть вопросы - пишите личное сообщение пользователю M0p94ok.
09:51
32
Нет комментариев. Ваш будет первым!