Поиск

(Funk, Soul) [CD] David Ruffin - Everything's Coming Up Love (1976) - 2013, FLAC (tracks+.cue), lossless

(Funk, Soul) [CD] David Ruffin - Everything's Coming Up Love (1976) - 2013, FLAC (tracks+.cue), lossless
Треклист:
David Ruffin - Everything's Coming Up Love (1976) Жанр: Funk, Soul
Носитель: CD
Страна-производитель диска: Japan
Год издания: 2013
Издатель (лейбл): Motown
Номер по каталогу: PROT-1103
Аудиокодек: FLAC (*.flac)
Тип рипа: tracks+.cue
Битрейт аудио: lossless
Продолжительность: 36:59
Rip by JET 1
Наличие сканов в содержимом раздачи: да
Треклист:
01. Discover Me (4:29)
02. First Round Knock-Out (8:47)
03. Good Good Times (3:45)
04. On And Off (2:52)
05. Ready, Willing And Able (3:38)
06. Everything's Coming Up Love (4:58)
07. Let's Get Into Something (4:55)
08. Until We Said Goodbye (3:35)
 
Лог создания рипа
Exact Audio Copy V1.0 beta 3 from 29. August 2011
EAC extraction logfile from 23. January 2016, 15:38
David Ruffin / Everything's Coming Up Love
Used drive : GENERIC CDRCB05 Adapter: 4 ID: 0
Read mode : Secure
Utilize accurate stream : Yes
Defeat audio cache : Yes
Make use of C2 pointers : No
Read offset correction : 102
Overread into Lead-In and Lead-Out : No
Fill up missing offset samples with silence : Yes
Delete leading and trailing silent blocks : No
Null samples used in CRC calculations : Yes
Used interface : Native Win32 interface for Win NT & 2000
Gap handling : Appended to previous track
Used output format : User Defined Encoder
Selected bitrate : 1024 kBit/s
Quality : High
Add ID3 tag : No
Command line compressor : C:\Program Files\FLAC\flac.exe
Additional command line options : -8 -V -T "ARTIST=%artist%" -T "TITLE=%title%" -T "ALBUM=%albumtitle%" -T "DATE=%year%" -T "TRACKNUMBER=%tracknr%" -T "GENRE=%genre%" -T "PERFORMER=%albuminterpret%" -T "COMPOSER=%composer%" %haslyrics%--tag-from-file=LYRICS="%lyricsfile%"%haslyrics% -T "ALBUMARTIST=%albumartist%" -T "DISCNUMBER=%cdnumber%" -T "TOTALDISCS=%totalcds%" -T "TOTALTRACKS=%numtracks%" -T "COMMENT=%comment%" %source% -o %dest%
TOC of the extracted CD
Track | Start | Length | Start sector | End sector
---------------------------------------------------------
1 | 0:00.00 | 4:28.56 | 0 | 20155
2 | 4:28.56 | 8:47.32 | 20156 | 59712
3 | 13:16.13 | 3:45.37 | 59713 | 76624
4 | 17:01.50 | 2:52.04 | 76625 | 89528
5 | 19:53.54 | 3:37.57 | 89529 | 105860
6 | 23:31.36 | 4:57.46 | 105861 | 128181
7 | 28:29.07 | 4:55.28 | 128182 | 150334
8 | 33:24.35 | 3:34.50 | 150335 | 166434
Track 1
Filename G:\POSTS\David Ruffin - Everything's Coming Up Love (1976) [2013 Japan]\01 - Discover Me.wav
Pre-gap length 0:00:02.00
Peak level 99.9 %
Extraction speed 2.2 X
Track quality 100.0 %
Test CRC 95B9CF12
Copy CRC 95B9CF12
Track not present in AccurateRip database
Copy OK
Track 2
Filename G:\POSTS\David Ruffin - Everything's Coming Up Love (1976) [2013 Japan]\02 - First Round Knock-Out.wav
Pre-gap length 0:00:02.65
Peak level 99.9 %
Extraction speed 2.9 X
Track quality 100.0 %
Test CRC 528AAA21
Copy CRC 528AAA21
Track not present in AccurateRip database
Copy OK
Track 3
Filename G:\POSTS\David Ruffin - Everything's Coming Up Love (1976) [2013 Japan]\03 - Good Good Times.wav
Pre-gap length 0:00:02.61
Peak level 99.7 %
Extraction speed 3.1 X
Track quality 100.0 %
Test CRC 8BEC8F1F
Copy CRC 8BEC8F1F
Track not present in AccurateRip database
Copy OK
Track 4
Filename G:\POSTS\David Ruffin - Everything's Coming Up Love (1976) [2013 Japan]\04 - On And Off.wav
Pre-gap length 0:00:02.64
Peak level 99.9 %
Extraction speed 2.9 X
Track quality 100.0 %
Test CRC 275B9A8C
Copy CRC 275B9A8C
Track not present in AccurateRip database
Copy OK
Track 5
Filename G:\POSTS\David Ruffin - Everything's Coming Up Love (1976) [2013 Japan]\05 - Ready, Willing And Able.wav
Peak level 99.8 %
Extraction speed 2.9 X
Track quality 99.9 %
Test CRC 9AF9AEE7
Copy CRC 9AF9AEE7
Track not present in AccurateRip database
Copy OK
Track 6
Filename G:\POSTS\David Ruffin - Everything's Coming Up Love (1976) [2013 Japan]\06 - Everything's Coming Up Love.wav
Pre-gap length 0:00:02.51
Peak level 99.7 %
Extraction speed 3.6 X
Track quality 100.0 %
Test CRC 8206EF31
Copy CRC 8206EF31
Track not present in AccurateRip database
Copy OK
Track 7
Filename G:\POSTS\David Ruffin - Everything's Coming Up Love (1976) [2013 Japan]\07 - Let's Get Into Something.wav
Pre-gap length 0:00:01.14
Peak level 99.9 %
Extraction speed 3.7 X
Track quality 100.0 %
Test CRC ED6BF761
Copy CRC ED6BF761
Track not present in AccurateRip database
Copy OK
Track 8
Filename G:\POSTS\David Ruffin - Everything's Coming Up Love (1976) [2013 Japan]\08 - Until We Said Goodbye.wav
Pre-gap length 0:00:02.61
Peak level 99.7 %
Extraction speed 3.8 X
Track quality 100.0 %
Test CRC 8F9B54EC
Copy CRC 8F9B54EC
Track not present in AccurateRip database
Copy OK
None of the tracks are present in the AccurateRip database
No errors occurred
End of status report
==== Log checksum 693CE30B85610198B5EC350263219109D3C69067E2694409C08569D70EC31413 ====
 
Содержание индексной карты (.CUE)
REM GENRE R&B
REM DATE 1976
REM DISCID 5408AB08
REM COMMENT "ExactAudioCopy v1.0b3"
PERFORMER "David Ruffin"
TITLE "Everything's Coming Up Love"
FILE "01 - Discover Me.wav" WAVE
TRACK 01 AUDIO
TITLE "Discover Me"
PERFORMER "David Ruffin"
INDEX 01 00:00:00
TRACK 02 AUDIO
TITLE "First Round Knock-Out"
PERFORMER "David Ruffin"
INDEX 00 04:25:66
FILE "02 - First Round Knock-Out.wav" WAVE
INDEX 01 00:00:00
TRACK 03 AUDIO
TITLE "Good Good Times"
PERFORMER "David Ruffin"
INDEX 00 08:44:46
FILE "03 - Good Good Times.wav" WAVE
INDEX 01 00:00:00
TRACK 04 AUDIO
TITLE "On And Off"
PERFORMER "David Ruffin"
INDEX 00 03:42:48
FILE "04 - On And Off.wav" WAVE
INDEX 01 00:00:00
FILE "05 - Ready, Willing And Able.wav" WAVE
TRACK 05 AUDIO
TITLE "Ready, Willing And Able"
PERFORMER "David Ruffin"
INDEX 01 00:00:00
TRACK 06 AUDIO
TITLE "Everything's Coming Up Love"
PERFORMER "David Ruffin"
INDEX 00 03:35:06
FILE "06 - Everything's Coming Up Love.wav" WAVE
INDEX 01 00:00:00
TRACK 07 AUDIO
TITLE "Let's Get Into Something"
PERFORMER "David Ruffin"
INDEX 00 04:56:32
FILE "07 - Let's Get Into Something.wav" WAVE
INDEX 01 00:00:00
TRACK 08 AUDIO
TITLE "Until We Said Goodbye"
PERFORMER "David Ruffin"
INDEX 00 04:52:42
FILE "08 - Until We Said Goodbye.wav" WAVE
INDEX 01 00:00:00
 
AllMusic review by Lindsay Planer
As he had done on Who I Am (1975), David Ruffin (vocals) teamed up with the multi-talented composer, arranger and producer Van McCoy for the follow-up Everything's Coming Up Love (1976). While certainly not a landmark in terms of Ruffin's artistic progression, the eight cuts definitely sound in sync with the concurrent plethora of danceable records spinning in the discotheques. McCoy again called on the finest instrumental support that the Big Apple had to offer with recording session stalwarts Richard Tee (keyboards), Eric Gale (guitar), Hugh McCracken (guitar), Steve Gadd (drums), and Ralph McDonald (percussion). Plus, Diane Destry (vocals), Brenda Hillard and Albert Bailey – better known as Faith, Hope & Charity. It is their angelic intonations that listeners are treated to during the opening of "Discover Me." McCoy's string and horn charts are ostensibly influenced by the Philly soul stylings of Leon Huff and Kenny Gamble. "First Round Knock Out" was a tune McCoy had initially written for two-time heavyweight champion, Smokin' Joe Frazier, which Motown put out in the fall of 1975. Ruffin's reading is clearly aimed for the dancefloor as the slinky, pulsating rhythm drives solidly for nearly nine minutes. Faith, Hope & Charity lend their breezy blend to the optimistic and reflective midtempo ballad "Good, Good Times." "On and Off" hearkens to the classic Motown sound with an easier, slightly syncopated beat that isn't as heavy as the typical fare on this project. "Ready Willing and Able" is a return to form for Ruffin as he unleashes his world-weary and soul-stirring wailing. The title song "Everything's Coming Up Love" is a rather blatant homage to Barry White's Love Unlimited Orchestra bearing more than a few similarities to the LUO's "Love's Theme." Although there are no slow, romantic numbers, the closer "Until We Say Goodbye" – one of two selections to have been penned by someone other than McCoy – adopts a sweet sentiment behind yet another disco-fied drone. The 45s "On and Off" b/w "No Matter Where" and "Everything's Coming Up Love" b/w "Statue of a Fool" – were issued as singles. Oddly, the flipsides came from earlier Ruffin LPs. In 2006 Hip-O Select compiled Everything's Coming Up Love (1975), In My Stride (1977), and a dozen-plus "bonus tracks" for the all-inclusive Motown Solo Albums, Vol. 2 (2006). The double-CD might prove difficult to find or pricey as it is a limited edition.
Приватный:
Нет (DHT включён)
Размер:
329.89 Мб (345,909,616 байт) » файлов: 28
Участники:
0 раздают, 0 качают (0 участников всего)
Внешние участники:
2 раздают, 1 качают (3 участников всего) [ Обновить ]
Есть вопросы - пишите личное сообщение пользователю M0p94ok.
09:48
67
Нет комментариев. Ваш будет первым!