Поиск

(Funk, Soul) [CD] David Ruffin - Who I Am (1975) - 2013, FLAC (tracks+.cue), lossless

(Funk, Soul) [CD] David Ruffin - Who I Am (1975) - 2013, FLAC (tracks+.cue), lossless
Треклист:
David Ruffin - Who I Am (1975) Жанр: Funk, Soul
Носитель: CD
Страна-производитель диска (релиза): Japan
Год издания: 2013
Издатель (лейбл): Motown
Номер по каталогу: PROT-1102
Аудиокодек: FLAC (*.flac)
Тип рипа: tracks+.cue
Битрейт аудио: lossless
Продолжительность: 40:13
Rip by JET 1
Наличие сканов в содержимом раздачи: да
Треклист:
01. Who I Am (4:05)
02. It Takes All Kinds Of People To Make A World (4:28)
03. Walk Away From Love (5:32)
04. I've Got Nothing But Time (3:27)
05. The Finger Pointers (3:29)
06. Wild Honey (4:49)
07. Heavy Love (4:55)
08. Statue Of A Fool (4:29)
09. Love Can Be Hazardous To Your Health (4:59)
 
 
Лог создания рипа
Exact Audio Copy V1.0 beta 3 from 29. August 2011
EAC extraction logfile from 23. January 2016, 17:14
David Ruffin / Who I Am
Used drive : GENERIC CDRCB05 Adapter: 4 ID: 0
Read mode : Secure
Utilize accurate stream : Yes
Defeat audio cache : Yes
Make use of C2 pointers : No
Read offset correction : 102
Overread into Lead-In and Lead-Out : No
Fill up missing offset samples with silence : Yes
Delete leading and trailing silent blocks : No
Null samples used in CRC calculations : Yes
Used interface : Native Win32 interface for Win NT & 2000
Gap handling : Appended to previous track
Used output format : User Defined Encoder
Selected bitrate : 1024 kBit/s
Quality : High
Add ID3 tag : No
Command line compressor : C:\Program Files\FLAC\flac.exe
Additional command line options : -8 -V -T "ARTIST=%artist%" -T "TITLE=%title%" -T "ALBUM=%albumtitle%" -T "DATE=%year%" -T "TRACKNUMBER=%tracknr%" -T "GENRE=%genre%" -T "PERFORMER=%albuminterpret%" -T "COMPOSER=%composer%" %haslyrics%--tag-from-file=LYRICS="%lyricsfile%"%haslyrics% -T "ALBUMARTIST=%albumartist%" -T "DISCNUMBER=%cdnumber%" -T "TOTALDISCS=%totalcds%" -T "TOTALTRACKS=%numtracks%" -T "COMMENT=%comment%" %source% -o %dest%
TOC of the extracted CD
Track | Start | Length | Start sector | End sector
---------------------------------------------------------
1 | 0:00.00 | 4:05.14 | 0 | 18388
2 | 4:05.14 | 4:28.17 | 18389 | 38505
3 | 8:33.31 | 5:31.43 | 38506 | 63373
4 | 14:04.74 | 3:26.39 | 63374 | 78862
5 | 17:31.38 | 3:29.34 | 78863 | 94571
6 | 21:00.72 | 4:49.16 | 94572 | 116262
7 | 25:50.13 | 4:55.03 | 116263 | 138390
8 | 30:45.16 | 4:28.57 | 138391 | 158547
9 | 35:13.73 | 4:59.07 | 158548 | 180979
Track 1
Filename G:\POSTS\David Ruffin - Who I Am (1975) [2013 Japan]\01 - Who I Am.wav
Pre-gap length 0:00:02.00
Peak level 100.0 %
Extraction speed 2.3 X
Track quality 100.0 %
Test CRC 3252D105
Copy CRC 3252D105
Track not present in AccurateRip database
Copy OK
Track 2
Filename G:\POSTS\David Ruffin - Who I Am (1975) [2013 Japan]\02 - It Takes All Kinds Of People To Make A World.wav
Pre-gap length 0:00:02.49
Peak level 98.8 %
Extraction speed 2.2 X
Track quality 99.9 %
Test CRC 1922031F
Copy CRC 1922031F
Track not present in AccurateRip database
Copy OK
Track 3
Filename G:\POSTS\David Ruffin - Who I Am (1975) [2013 Japan]\03 - Walk Away From Love.wav
Pre-gap length 0:00:02.73
Peak level 98.8 %
Extraction speed 2.9 X
Track quality 100.0 %
Test CRC E9460075
Copy CRC E9460075
Track not present in AccurateRip database
Copy OK
Track 4
Filename G:\POSTS\David Ruffin - Who I Am (1975) [2013 Japan]\04 - I've Got Nothing But Time.wav
Pre-gap length 0:00:02.29
Peak level 98.8 %
Extraction speed 3.0 X
Track quality 100.0 %
Test CRC 4C1738E7
Copy CRC 4C1738E7
Track not present in AccurateRip database
Copy OK
Track 5
Filename G:\POSTS\David Ruffin - Who I Am (1975) [2013 Japan]\05 - The Finger Pointers.wav
Pre-gap length 0:00:02.54
Peak level 100.0 %
Extraction speed 2.8 X
Track quality 99.9 %
Test CRC A499DECB
Copy CRC A499DECB
Track not present in AccurateRip database
Copy OK
Track 6
Filename G:\POSTS\David Ruffin - Who I Am (1975) [2013 Japan]\06 - Wild Honey.wav
Pre-gap length 0:00:02.47
Peak level 98.8 %
Extraction speed 3.6 X
Track quality 100.0 %
Test CRC CAF06B0B
Copy CRC CAF06B0B
Track not present in AccurateRip database
Copy OK
Track 7
Filename G:\POSTS\David Ruffin - Who I Am (1975) [2013 Japan]\07 - Heavy Love.wav
Pre-gap length 0:00:02.26
Peak level 98.8 %
Extraction speed 3.3 X
Track quality 100.0 %
Test CRC 947B682B
Copy CRC 947B682B
Track not present in AccurateRip database
Copy OK
Track 8
Filename G:\POSTS\David Ruffin - Who I Am (1975) [2013 Japan]\08 - Statue Of A Fool.wav
Pre-gap length 0:00:02.49
Peak level 88.9 %
Extraction speed 3.2 X
Track quality 100.0 %
Test CRC 7B2B8455
Copy CRC 7B2B8455
Track not present in AccurateRip database
Copy OK
Track 9
Filename G:\POSTS\David Ruffin - Who I Am (1975) [2013 Japan]\09 - Love Can Be Hazardous To Your Health.wav
Pre-gap length 0:00:02.50
Peak level 98.8 %
Extraction speed 3.9 X
Track quality 100.0 %
Test CRC B70D9A97
Copy CRC B70D9A97
Track not present in AccurateRip database
Copy OK
None of the tracks are present in the AccurateRip database
No errors occurred
End of status report
==== Log checksum D5C12DED6DA35FA4A78CDBFCA10DE3AFD60E4F9C3B4E28CE04DDA395DEA61735 ====
 
Содержание индексной карты (.CUE)
REM GENRE R&B
REM DATE 1975
REM DISCID 6A096D09
REM COMMENT "ExactAudioCopy v1.0b3"
PERFORMER "David Ruffin"
TITLE "Who I Am"
FILE "01 - Who I Am.wav" WAVE
TRACK 01 AUDIO
TITLE "Who I Am"
PERFORMER "David Ruffin"
INDEX 01 00:00:00
TRACK 02 AUDIO
TITLE "It Takes All Kinds Of People To Make A World"
PERFORMER "David Ruffin"
INDEX 00 04:02:40
FILE "02 - It Takes All Kinds Of People To Make A World.wav" WAVE
INDEX 01 00:00:00
TRACK 03 AUDIO
TITLE "Walk Away From Love"
PERFORMER "David Ruffin"
INDEX 00 04:25:19
FILE "03 - Walk Away From Love.wav" WAVE
INDEX 01 00:00:00
TRACK 04 AUDIO
TITLE "I've Got Nothing But Time"
PERFORMER "David Ruffin"
INDEX 00 05:29:14
FILE "04 - I've Got Nothing But Time.wav" WAVE
INDEX 01 00:00:00
TRACK 05 AUDIO
TITLE "The Finger Pointers"
PERFORMER "David Ruffin"
INDEX 00 03:23:60
FILE "05 - The Finger Pointers.wav" WAVE
INDEX 01 00:00:00
TRACK 06 AUDIO
TITLE "Wild Honey"
PERFORMER "David Ruffin"
INDEX 00 03:26:62
FILE "06 - Wild Honey.wav" WAVE
INDEX 01 00:00:00
TRACK 07 AUDIO
TITLE "Heavy Love"
PERFORMER "David Ruffin"
INDEX 00 04:46:65
FILE "07 - Heavy Love.wav" WAVE
INDEX 01 00:00:00
TRACK 08 AUDIO
TITLE "Statue Of A Fool"
PERFORMER "David Ruffin"
INDEX 00 04:52:29
FILE "08 - Statue Of A Fool.wav" WAVE
INDEX 01 00:00:00
TRACK 09 AUDIO
TITLE "Love Can Be Hazardous To Your Health"
PERFORMER "David Ruffin"
INDEX 00 04:26:07
FILE "09 - Love Can Be Hazardous To Your Health.wav" WAVE
INDEX 01 00:00:00
 
AllMusic review by Lindsay Planer
On Who I Am (1975) former Temptations' vocalist David Ruffin joins forces with the multi-talented Van McCoy. McCoy – who produced and arranged the album – was a hot commodity thanks to his disco hit "The Hustle." Although Motown had relocated to Los Angeles, Ruffin and McCoy brought the project to New York City and availed themselves of the finest studio musicians that the Big Apple had to offer: Richard Tee (keyboards), Eric Gale (guitar), Hugh McCracken (guitar), and Steve Gadd (drums), just to mention a few. The opening midtempo title composition sets the pace and establishes the prevalent dance-centric nature. "It Takes All Kinds of People to Make a World" continues in the same four-on-the-four rhythmic vein with the McCoy-directed string section. Ruffin's "Walk Away from Love" – which actually made it all the way to the number one slot on the R&B Singles survey – bears an easygoing boogie enhanced by typical string and horn punctuations. Ruffin's begging lead vocals are reminders of his once golden throat. "I've Got Nothing but Time" and the light and lively "Finger Pointers" stand out as two of the catchier selections on the disc, the latter soaking up every McCoy element in the book – syrupy strings, a pulsating groove, and enough of a syncopated melody to hook even the most jaded listener. The slightly Eastern-flavored arrangement on "Wild Honey" provides a bit of much needed stylistic variety – although it doesn't stray too far – while "Heavy Love" is essentially structured as if remaking "The Hustle." No wonder it climbed into the upper reaches of the R&B countdown. "Statue of a Fool" proves that Ruffin can still churn out a heartfelt ballad. Granted his delivery doesn't have the gut-check realism that informed the best of his Temptations' and first couple of solo sides, however it is suitably matched to the half-hearted material. Who I Am concludes on an up note with the funky and driving "Love Can Be Hazardous to Your Health." Ruffin manages to coax out a few of his vintage tonsil-grinding growls as he pleads for the listener to "…beware…beware…beware" before instigating a lyrical call-and-response. The cut was twice a 7" bridesmaid, appearing as the B-side to both "Walk Away from Love" and "Heavy Love." Hip-O Select gathered Who I Am along with the artist's last Motown long-players Everything's Coming Up Love (1976) and In My Stride (1977), as well as a dozen previously unreleased bonus tracks for Motown Solo Albums, Vol. 2 (2006). The double-CD might prove difficult to find or pricey as it is a limited edition.
Приватный:
Нет (DHT включён)
Размер:
347.80 Мб (364,697,071 байт) » файлов: 30
Участники:
0 раздают, 0 качают (0 участников всего)
Внешние участники:
1 раздают, 0 качают (1 участников всего) [ Обновить ]
Есть вопросы - пишите личное сообщение пользователю M0p94ok.
09:47
119
Нет комментариев. Ваш будет первым!