Поиск

(Neo-Soul) [CD] Moonchild - Please Rewind - 2015, FLAC (tracks+.cue), lossless

(Neo-Soul) [CD] Moonchild - Please Rewind - 2015, FLAC (tracks+.cue), lossless
Треклист:
Moonchild - Please Rewind
Жанр: Neo-Soul
Носитель: CD
Страна-производитель диска (релиза): Великобритания
Год издания: 2015
Издатель (лейбл): Tru Thoughts
Номер по каталогу: TruCD320
Страна исполнителя (группы): США
Аудиокодек: FLAC (*.flac)
Тип рипа: tracks+.cue
Битрейт аудио: lossless
Продолжительность: 34:54
Источник (релизер): Monopatin (what)
Наличие сканов в содержимом раздачи: нет
Треклист:
01. All the Joy (3:38)
02. The Truth (3:40)
03. Don't Wake Me (4:43)
04. Nobody (3:53)
05. More Than Ever (3:57)
06. Just a Minute (2:58)
07. Winter Breeze (3:54)
08. I'll Make It Easy (4:13)
09. Please Rewind (Interlude) (0:25)
10. Moonlight (3:33)
Состав:
Amber Navran - vocals, tenor, saxophone
Max Bryk - alto saxophone, flute, clarinet, keyboards
Andris Mattson - trumpet, flugelhorn, keyboards
 
Лог создания рипа
Exact Audio Copy V1.0 beta 3 from 29. August 2011
EAC extraction logfile from 9. November 2015, 17:43
Moonchild / Please Rewind
Used drive : hp BD MLT UJ262 Adapter: 0 ID: 0
Read mode : Secure
Utilize accurate stream : Yes
Defeat audio cache : Yes
Make use of C2 pointers : No
Read offset correction : 103
Overread into Lead-In and Lead-Out : No
Fill up missing offset samples with silence : Yes
Delete leading and trailing silent blocks : No
Null samples used in CRC calculations : Yes
Used interface : Native Win32 interface for Win NT & 2000
Gap handling : Appended to previous track
Used output format : User Defined Encoder
Selected bitrate : 1024 kBit/s
Quality : High
Add ID3 tag : No
Command line compressor : C:\Program Files (x86)\Exact Audio Copy\Flac\flac.exe
Additional command line options : -8 -V -T "ARTIST=%artist%" -T "TITLE=%title%" -T "ALBUM=%albumtitle%" -T "DATE=%year%" -T "TRACKNUMBER=%tracknr%" -T "GENRE=%genre%" -T "PERFORMER=%albuminterpret%" -T "COMPOSER=%composer%" %haslyrics%--tag-from-file=LYRICS="%lyricsfile%"%haslyrics% -T "ALBUMARTIST=%albumartist%" -T "DISCNUMBER=%cdnumber%" -T "TOTALDISCS=%totalcds%" -T "TOTALTRACKS=%numtracks%" -T "COMMENT=%comment%" %source% -o %dest%
TOC of the extracted CD
Track | Start | Length | Start sector | End sector
---------------------------------------------------------
1 | 0:00.00 | 3:37.52 | 0 | 16326
2 | 3:37.52 | 3:40.09 | 16327 | 32835
3 | 7:17.61 | 4:42.64 | 32836 | 54049
4 | 12:00.50 | 3:53.28 | 54050 | 71552
5 | 15:54.03 | 3:56.71 | 71553 | 89323
6 | 19:50.74 | 2:57.71 | 89324 | 102669
7 | 22:48.70 | 3:53.59 | 102670 | 120203
8 | 26:42.54 | 4:12.41 | 120204 | 139144
9 | 30:55.20 | 0:25.16 | 139145 | 141035
10 | 31:20.36 | 3:33.22 | 141036 | 157032
Track 1
Filename C:\Users\Julian\Music\Moonchild - Please Rewind (FLAC)\Moonchild - Please Rewind - 01 - All The Joy.wav
Pre-gap length 0:00:02.00
Peak level 98.8 %
Extraction speed 2.5 X
Track quality 100.0 %
Test CRC 05F7DEBA
Copy CRC 05F7DEBA
Track not present in AccurateRip database
Copy OK
Track 2
Filename C:\Users\Julian\Music\Moonchild - Please Rewind (FLAC)\Moonchild - Please Rewind - 02 - The Truth.wav
Pre-gap length 0:00:01.24
Peak level 98.8 %
Extraction speed 2.0 X
Track quality 99.9 %
Test CRC FE06F51F
Copy CRC FE06F51F
Track not present in AccurateRip database
Copy OK
Track 3
Filename C:\Users\Julian\Music\Moonchild - Please Rewind (FLAC)\Moonchild - Please Rewind - 03 - Don't Wake Me.wav
Pre-gap length 0:00:00.80
Peak level 98.8 %
Extraction speed 2.4 X
Track quality 99.9 %
Test CRC E2052271
Copy CRC E2052271
Track not present in AccurateRip database
Copy OK
Track 4
Filename C:\Users\Julian\Music\Moonchild - Please Rewind (FLAC)\Moonchild - Please Rewind - 04 - Nobody.wav
Pre-gap length 0:00:00.66
Peak level 98.8 %
Extraction speed 2.4 X
Track quality 99.9 %
Test CRC 59F44A8D
Copy CRC 59F44A8D
Track not present in AccurateRip database
Copy OK
Track 5
Filename C:\Users\Julian\Music\Moonchild - Please Rewind (FLAC)\Moonchild - Please Rewind - 05 - More Than Ever.wav
Pre-gap length 0:00:00.93
Peak level 98.8 %
Extraction speed 3.5 X
Track quality 100.0 %
Test CRC 617CE3D1
Copy CRC 617CE3D1
Track not present in AccurateRip database
Copy OK
Track 6
Filename C:\Users\Julian\Music\Moonchild - Please Rewind (FLAC)\Moonchild - Please Rewind - 06 - Just a Minute.wav
Pre-gap length 0:00:02.41
Peak level 98.8 %
Extraction speed 2.4 X
Track quality 99.9 %
Test CRC 1F7C88D1
Copy CRC 1F7C88D1
Track not present in AccurateRip database
Copy OK
Track 7
Filename C:\Users\Julian\Music\Moonchild - Please Rewind (FLAC)\Moonchild - Please Rewind - 07 - Winter Breeze.wav
Pre-gap length 0:00:01.21
Peak level 89.1 %
Extraction speed 3.8 X
Track quality 100.0 %
Test CRC DF156CFC
Copy CRC DF156CFC
Track not present in AccurateRip database
Copy OK
Track 8
Filename C:\Users\Julian\Music\Moonchild - Please Rewind (FLAC)\Moonchild - Please Rewind - 08 - I'll Make It Easy.wav
Pre-gap length 0:00:01.64
Peak level 98.8 %
Extraction speed 4.0 X
Track quality 100.0 %
Test CRC 15772EE2
Copy CRC 15772EE2
Track not present in AccurateRip database
Copy OK
Track 9
Filename C:\Users\Julian\Music\Moonchild - Please Rewind (FLAC)\Moonchild - Please Rewind - 09 - Please Rewind (Interlude).wav
Pre-gap length 0:00:00.26
Peak level 98.8 %
Extraction speed 0.7 X
Track quality 99.5 %
Test CRC FB6E7D4D
Copy CRC FB6E7D4D
Track not present in AccurateRip database
Copy OK
Track 10
Filename C:\Users\Julian\Music\Moonchild - Please Rewind (FLAC)\Moonchild - Please Rewind - 10 - Moonlight.wav
Pre-gap length 0:00:01.13
Peak level 98.8 %
Extraction speed 4.1 X
Track quality 100.0 %
Test CRC 95A851B8
Copy CRC 95A851B8
Track not present in AccurateRip database
Copy OK
None of the tracks are present in the AccurateRip database
No errors occurred
End of status report
==== Log checksum 740CAC5EACE8C8A26927A92532029D1EFF51F9DBABB2E6AB2CA4E3C13BF9E399 ====
 
Содержание индексной карты (.CUE)
REM GENRE Neo-Soul
REM DATE 2015
REM DISCID 88082D0A
REM COMMENT "ExactAudioCopy v1.0b3"
PERFORMER "Moonchild"
TITLE "Please Rewind"
FILE "01 - All the Joy.wav" WAVE
TRACK 01 AUDIO
TITLE "All the Joy"
PERFORMER "Moonchild"
ISRC GBEUE1500180
INDEX 01 00:00:00
TRACK 02 AUDIO
TITLE "The Truth"
PERFORMER "Moonchild"
ISRC GBEUE1500181
INDEX 00 03:36:34
FILE "02 - The Truth.wav" WAVE
INDEX 01 00:00:00
TRACK 03 AUDIO
TITLE "Don't Wake Me"
PERFORMER "Moonchild"
ISRC GBEUE1500182
INDEX 00 03:39:24
FILE "03 - Don't Wake Me.wav" WAVE
INDEX 01 00:00:00
TRACK 04 AUDIO
TITLE "Nobody"
PERFORMER "Moonchild"
ISRC GBEUE1500183
INDEX 00 04:42:14
FILE "04 - Nobody.wav" WAVE
INDEX 01 00:00:00
TRACK 05 AUDIO
TITLE "More Than Ever"
PERFORMER "Moonchild"
ISRC GBEUE1500184
INDEX 00 03:52:33
FILE "05 - More Than Ever.wav" WAVE
INDEX 01 00:00:00
TRACK 06 AUDIO
TITLE "Just a Minute"
PERFORMER "Moonchild"
ISRC GBEUE1500185
INDEX 00 03:54:40
FILE "06 - Just a Minute.wav" WAVE
INDEX 01 00:00:00
TRACK 07 AUDIO
TITLE "Winter Breeze"
PERFORMER "Moonchild"
ISRC GBEUE1500186
INDEX 00 02:56:55
FILE "07 - Winter Breeze.wav" WAVE
INDEX 01 00:00:00
TRACK 08 AUDIO
TITLE "I'll Make It Easy"
PERFORMER "Moonchild"
ISRC GBEUE1500187
INDEX 00 03:52:11
FILE "08 - I'll Make It Easy.wav" WAVE
INDEX 01 00:00:00
TRACK 09 AUDIO
TITLE "Please Rewind (Interlude)"
PERFORMER "Moonchild"
ISRC GBEUE1500188
INDEX 00 04:12:21
FILE "09 - Please Rewind (Interlude).wav" WAVE
INDEX 01 00:00:00
TRACK 10 AUDIO
TITLE "Moonlight"
PERFORMER "Moonchild"
ISRC GBEUE1500189
INDEX 00 00:24:06
FILE "10 - Moonlight.wav" WAVE
INDEX 01 00:00:00
 
Отчет CUETools
[CUETools log; Date: 29.01.2016 22:17:46; Version: 2.1.5]
[CTDB TOCID: 0DnIJucxMvCjIFIWvcSE.6ReiNQ-] found.
Track | CTDB Status
1 | (1/1) Accurately ripped
2 | (1/1) Accurately ripped
3 | (1/1) Accurately ripped
4 | (1/1) Accurately ripped
5 | (1/1) Accurately ripped
6 | (1/1) Accurately ripped
7 | (1/1) Accurately ripped
8 | (1/1) Accurately ripped
9 | (1/1) Accurately ripped
10 | (1/1) Accurately ripped
[AccurateRip ID: 000e1a12-006f903e-88082d0a] found.
Track [ CRC | V2 ] Status
01 [23cb5c43|2adfec32] (0+1/1) Accurately ripped
02 [7ec5962b|3e04ae5f] (0+1/1) Accurately ripped
03 [34f6fe22|1ace4390] (0+1/1) Accurately ripped
04 [794ec343|6ce23de8] (0+1/1) Accurately ripped
05 [8ad40744|8bbc1e82] (0+1/1) Accurately ripped
06 [b6683539|e8623635] (0+1/1) Accurately ripped
07 [6b7f8dc9|f2e1eb19] (0+1/1) Accurately ripped
08 [bb8841db|3188575d] (0+1/1) Accurately ripped
09 [aee6f691|22a7452b] (0+1/1) Accurately ripped
10 [b79c2e97|a1adf913] (0+1/1) Accurately ripped
Track Peak [ CRC32 ] [W/O NULL] [ LOG ]
-- 98,8 [49FDA73C] [FD28C5B5]
01 98,8 [05F7DEBA] [83E34E84] CRC32
02 98,8 [FE06F51F] [587030F8] CRC32
03 98,8 [E2052271] [D6923FAC] CRC32
04 98,8 [59F44A8D] [B7F5C0A5] CRC32
05 98,8 [617CE3D1] [E00C175B] CRC32
06 98,8 [1F7C88D1] [091D0B03] CRC32
07 89,1 [DF156CFC] [ABA4400F] CRC32
08 98,8 [15772EE2] [E95DA236] CRC32
09 98,8 [FB6E7D4D] [4C957923] CRC32
10 98,8 [95A851B8] [4F0E70EA] CRC32
 
Об альбоме (сборнике)
Out 6th November (US) / 20th November (ROW), ‘Please Rewind’ is the debut album on Tru Thoughts from new signing Moonchild, following the release of lead single “The Truth” (out 9th October) they will be supporting The Internet (Odd Future’s Syd tha Kyd & Matt Martians) on their US/Canada fall tour. This LA based trio – whose early offerings have already gained approval from the likes of Stevie Wonder, Jill Scott, India.Arie, Leela James, Robert Glasper, Laura Mvula, James Poyser, Jazzy Jeff, Jose James, Tyler, The Creator, The Internet, Gilles Peterson (BBC 6 Music), WHUR-DC, KCRW and LA 102.3 – are excited to take their place on the roster and represent the label’s growing Californian contingent alongside fellow West Coast rising stars Lost Midas and The Seshen.
The name ‘Moonchild’ came about before the project had even started. “The three of us bonded one evening while star-gazing, so when it came to think of a name for the band, we knew that it was right.” Fast-forward three years of jamming together on the University of Southern California’s Jazz programme, and Moonchild have played some of the biggest Jazz festivals in America (Montreal, Capital, Art of Cool, Arizona, San Diego etc.), and gigged with prolific names from Stevie Wonder to Jill Scott to India.Arie.
Members Amber Navran (vocals, tenor, saxophone), Max Bryk (alto saxophone, flute, clarinet, keyboards) and Andris Mattson (trumpet/flugelhorn, keyboards) explore new soul / jazz / electronic ground, and with a penchant for exquisite arrangement, they create textured and catchy riffs which will excite everyone from post-bop jazz lovers to contemporary neo-soul crowds.
Приватный:
Нет (DHT включён)
Размер:
170.49 Мб (178,774,990 байт) » файлов: 18
Участники:
0 раздают, 0 качают (0 участников всего)
Внешние участники:
5 раздают, 2 качают (7 участников всего) [ Обновить ]
Есть вопросы - пишите личное сообщение пользователю M0p94ok.
09:47
454
Нет комментариев. Ваш будет первым!